<?xml version="1.0" standalone="no"?>
<!DOCTYPE svg PUBLIC "-//W3C//DTD SVG 1.1//EN" "http://www.w3.org/Graphics/SVG/1.1/DTD/svg11.dtd" >
<svg xmlns="http://www.w3.org/2000/svg">
<metadata></metadata>
<defs>
<font id="utb_textregular" horiz-adv-x="0" >
<font-face units-per-em="2048" ascent="1536" descent="-512" />
<missing-glyph horiz-adv-x="413" />
<glyph unicode="fi" horiz-adv-x="1138" d="M61 858v127l136 10v158q0 157 72 243.5t218 86.5q83 0 166 -33l-37 -129q-58 25 -112 25q-139 0 -139 -193v-158h210v-137h-210v-858h-168v858h-136zM772 1309q0 49 33.5 78.5t83.5 29.5t82.5 -29.5t32.5 -78.5q0 -47 -32.5 -78t-82.5 -31t-83.5 31t-33.5 78zM803 0v995 h168v-995h-168z" />
<glyph unicode="fl" horiz-adv-x="1120" d="M61 858v127l136 10v158q0 157 72 243.5t218 86.5q83 0 166 -33l-37 -129q-58 25 -112 25q-139 0 -139 -193v-158h210v-137h-210v-858h-168v858h-136zM766 201v1257h168v-1270q0 -37 13 -55t34 -18q19 0 37 4l22 -127q-42 -17 -96 -17q-93 0 -135.5 57t-42.5 169z" />
<glyph unicode="ft" horiz-adv-x="1216" d="M61 858v127l136 10v158q0 157 72 243.5t218 86.5q83 0 166 -33l-37 -129q-58 25 -112 25q-139 0 -139 -193v-158h364l21 279h139v-279h270v-137h-270v-553q0 -96 36 -144t119 -48q42 0 113 26l33 -127q-113 -37 -184 -37q-285 0 -285 332v551h-356v-858h-168v858h-136z " />
<glyph unicode=" "  horiz-adv-x="413" />
<glyph unicode="&#x09;" horiz-adv-x="413" />
<glyph unicode="&#xa0;" horiz-adv-x="413" />
<glyph unicode="!" horiz-adv-x="591" d="M174 102q0 58 35.5 94.5t87.5 36.5q51 0 86 -37t35 -94q0 -55 -35.5 -91t-85.5 -36q-52 0 -87.5 36t-35.5 91zM211 1372h170l-4 -192l-23 -774h-116l-23 774z" />
<glyph unicode="&#x22;" horiz-adv-x="872" d="M164 1413h180l-6 -188l-33 -342h-102l-33 342zM526 1413h179l-5 -188l-32 -342h-105l-33 342z" />
<glyph unicode="#" horiz-adv-x="1017" d="M72 418v117h178l37 303h-174v118h188l47 375h109l-47 -375h272l49 375h109l-49 -375h165v-118h-178l-37 -303h174v-117h-188l-51 -418h-109l49 418h-270l-51 -418h-111l52 418h-164zM360 535h271l37 303h-271z" />
<glyph unicode="$" horiz-adv-x="1017" d="M106 135l78 117q159 -137 318 -137q111 0 169 56.5t58 154.5q0 67 -31.5 119.5t-82 87t-111 66t-121.5 65t-111.5 74t-82 103.5t-31.5 144q0 135 81 227.5t216 114.5v205h123v-203q91 -10 159 -49.5t131 -105.5l-90 -101q-63 61 -117.5 89t-132.5 28q-93 0 -148.5 -53.5 t-55.5 -143.5q0 -60 31.5 -106t82 -77t111.5 -60t121.5 -63.5t111 -77.5t82 -112.5t31.5 -158.5q0 -146 -85 -241t-232 -115v-207h-123v202q-95 9 -188.5 52.5t-160.5 105.5z" />
<glyph unicode="%" horiz-adv-x="1687" d="M72 946q0 200 82.5 311t222.5 111q139 0 222 -111.5t83 -310.5q0 -200 -83 -313t-222 -113q-140 0 -222.5 113t-82.5 313zM199 946q0 -156 48 -238.5t130 -82.5q80 0 128 82.5t48 238.5t-47.5 237t-128.5 81q-82 0 -130 -80.5t-48 -237.5zM416 -25l741 1393h113 l-742 -1393h-112zM1008 401q0 199 82.5 310.5t222.5 111.5q139 0 222 -112t83 -310q0 -201 -83 -313.5t-222 -112.5q-140 0 -222.5 112.5t-82.5 313.5zM1135 401q0 -155 48.5 -238t129.5 -83q80 0 128 82.5t48 238.5q0 155 -47.5 236.5t-128.5 81.5t-129.5 -81.5 t-48.5 -236.5z" />
<glyph unicode="&#x26;" horiz-adv-x="1247" d="M66 348q0 65 21 122t61 105t82 84t100 76q-88 178 -88 316q0 136 86.5 226.5t224.5 90.5q123 0 193.5 -73t70.5 -193q0 -43 -11 -82t-35.5 -76t-47.5 -65t-65 -63t-68.5 -55t-75.5 -56q129 -201 340 -377q129 174 188 397h158q-85 -281 -235 -481q147 -101 252 -129 l-46 -140q-150 43 -309 154q-171 -154 -387 -154q-182 0 -295.5 104.5t-113.5 268.5zM229 358q0 -110 76 -178.5t189 -68.5q132 0 256 108q-214 188 -353 399q-81 -65 -124.5 -126.5t-43.5 -133.5zM387 1053q0 -101 64 -236q54 36 89 63.5t70.5 63t52.5 74.5t17 82 q0 64 -31.5 105.5t-95.5 41.5q-74 0 -120 -55t-46 -139z" />
<glyph unicode="'" horiz-adv-x="509" d="M164 1413h180l-6 -188l-33 -342h-102l-33 342z" />
<glyph unicode="(" horiz-adv-x="620" d="M168 569q0 495 270 930l105 -49q-117 -192 -176.5 -418t-59.5 -463t59.5 -462.5t176.5 -417.5l-105 -49q-270 435 -270 929z" />
<glyph unicode=")" horiz-adv-x="620" d="M78 -311q235 387 235 880q0 237 -59 463t-176 418l104 49q271 -437 271 -930q0 -261 -69 -488t-202 -441z" />
<glyph unicode="*" horiz-adv-x="856" d="M119 1194l31 94l208 -51l19 221h100l19 -219l211 49l30 -94l-198 -82l114 -192l-80 -60l-145 176l-145 -176l-82 60l116 192z" />
<glyph unicode="+" horiz-adv-x="1017" d="M70 612v127h372v400h133v-400h373v-127h-373v-399h-133v399h-372z" />
<glyph unicode="," horiz-adv-x="509" d="M96 -250q88 39 136.5 103.5t48.5 146.5q-6 -2 -21 -2q-52 0 -86.5 31t-34.5 86q0 54 36 86t89 32q66 0 104 -53t38 -145q0 -130 -71.5 -230t-197.5 -153z" />
<glyph unicode="-" horiz-adv-x="636" d="M84 449v129h471v-129h-471z" />
<glyph unicode="." horiz-adv-x="509" d="M133 102q0 58 35.5 94.5t87.5 36.5q51 0 86 -37t35 -94q0 -55 -35.5 -91t-85.5 -36q-52 0 -87.5 36t-35.5 91z" />
<glyph unicode="/" horiz-adv-x="716" d="M20 -328l547 1782h123l-547 -1782h-123z" />
<glyph unicode="0" horiz-adv-x="1101" d="M113 657q0 322 116 498t322 176q205 0 321.5 -177t116.5 -497q0 -321 -116.5 -501.5t-321.5 -180.5t-321.5 180.5t-116.5 501.5zM283 657q0 -274 71 -408t197 -134t197 134t71 408q0 273 -70.5 403t-197.5 130t-197.5 -130t-70.5 -403z" />
<glyph unicode="1" horiz-adv-x="755" d="M102 1102v108q161 27 279 97h129v-1307h-168v1102h-240z" />
<glyph unicode="2" horiz-adv-x="1026" d="M76 1133q91 99 184.5 148.5t212.5 49.5q180 0 283.5 -105t103.5 -280q0 -60 -16 -121t-54 -129t-76.5 -125.5t-108.5 -139.5t-123 -140.5t-146 -157.5q140 12 219 12h363v-145h-830v100q133 133 215.5 219t165.5 182t127.5 165t72 139.5t27.5 132.5q0 118 -61 187 t-182 69q-146 0 -279 -158z" />
<glyph unicode="3" horiz-adv-x="1017" d="M53 160l86 110q147 -155 334 -155q120 0 195 65.5t75 173.5q0 125 -97.5 192.5t-319.5 67.5v129q370 0 370 244q0 95 -60.5 151t-164.5 56q-145 0 -278 -133l-91 106q174 164 375 164q174 0 282.5 -88.5t108.5 -243.5q0 -114 -63 -191.5t-174 -119.5v-8 q125 -29 203.5 -115.5t78.5 -216.5q0 -169 -122.5 -271t-307.5 -102q-260 0 -430 185z" />
<glyph unicode="4" horiz-adv-x="1062" d="M70 360v111l559 836h186v-811h178v-136h-178v-360h-158v360h-587zM246 496h411v378q0 94 9 252h-9q-17 -32 -106 -184z" />
<glyph unicode="5" horiz-adv-x="1017" d="M51 154l82 110q69 -69 147 -109t183 -40q123 0 205 82.5t82 216.5t-76 210t-203 76q-63 0 -110.5 -18.5t-112.5 -60.5l-90 57l43 629h653v-146h-506l-35 -387q98 53 201 53q178 0 292 -103.5t114 -305.5q0 -103 -37 -188t-98.5 -140t-140.5 -85t-165 -30q-249 0 -428 179 z" />
<glyph unicode="6" horiz-adv-x="1075" d="M125 604q0 153 27 276.5t73.5 206.5t110.5 138.5t135.5 80.5t151.5 25q186 0 315 -139l-94 -105q-40 48 -97 75.5t-118 27.5q-71 0 -130 -29.5t-107 -92t-76 -173t-31 -260.5q62 75 144 119.5t161 44.5q173 0 273 -103.5t100 -300.5q0 -184 -113 -302t-275 -118 q-201 0 -325.5 162t-124.5 467zM289 500q15 -191 88.5 -291t197.5 -100q98 0 163 79.5t65 206.5q0 130 -61.5 203.5t-180.5 73.5q-66 0 -137.5 -42.5t-134.5 -129.5z" />
<glyph unicode="7" horiz-adv-x="1005" d="M90 1161v146h813v-105q-113 -147 -185.5 -280t-114 -281t-60 -291t-27.5 -350h-174q17 373 99.5 634t271.5 527h-623z" />
<glyph unicode="8" horiz-adv-x="1075" d="M113 334q0 118 69.5 206.5t175.5 145.5v8q-182 129 -182 301q0 149 105.5 242.5t265.5 93.5q169 0 268.5 -96.5t99.5 -251.5q0 -93 -54 -176.5t-126 -138.5v-9q50 -29 86 -57.5t71 -68.5t53 -93t18 -116q0 -149 -117 -249t-303 -100t-308 102t-122 257zM264 350 q0 -108 80 -179t201 -71q115 0 185.5 64t70.5 166q0 47 -20 87.5t-43.5 66t-78 56t-86.5 44.5t-107 44q-11 5 -17 7q-185 -122 -185 -285zM332 995q0 -45 17.5 -83.5t42.5 -65t69 -53t79.5 -42.5t92.5 -38q137 121 137 262q0 100 -60.5 165.5t-166.5 65.5 q-92 0 -151.5 -58.5t-59.5 -152.5z" />
<glyph unicode="9" horiz-adv-x="1075" d="M104 911q0 184 113 302t275 118q200 0 325 -162.5t125 -466.5q0 -153 -27 -276.5t-73.5 -206.5t-110.5 -138.5t-135.5 -80.5t-151.5 -25q-188 0 -315 138l94 106q40 -48 97 -76t118 -28q72 0 131 29.5t106.5 93t75.5 174t31 260.5q-61 -76 -143 -120t-162 -44 q-173 0 -273 103t-100 300zM264 911q0 -130 61.5 -203t180.5 -73q66 0 137.5 42.5t134.5 129.5q-15 191 -88.5 291t-197.5 100q-98 0 -163 -80t-65 -207z" />
<glyph unicode=":" horiz-adv-x="509" d="M133 102q0 58 35.5 94.5t87.5 36.5q51 0 86 -37t35 -94q0 -55 -35.5 -91t-85.5 -36q-52 0 -87.5 36t-35.5 91zM133 842q0 57 35.5 93t87.5 36q51 0 86 -36t35 -93q0 -56 -35 -91.5t-86 -35.5q-52 0 -87.5 35.5t-35.5 91.5z" />
<glyph unicode=";" horiz-adv-x="509" d="M96 -250q88 39 136.5 103.5t48.5 146.5q-6 -2 -21 -2q-52 0 -86.5 31t-34.5 86q0 54 36 86t89 32q66 0 104 -53t38 -145q0 -130 -71.5 -230t-197.5 -153zM133 842q0 57 35.5 93t87.5 36q51 0 86 -36t35 -93q0 -56 -35 -91.5t-86 -35.5q-52 0 -87.5 35.5t-35.5 91.5z" />
<glyph unicode="&#x3c;" horiz-adv-x="1017" d="M70 612v136l878 344v-146l-706 -262v-8l706 -262v-146z" />
<glyph unicode="=" horiz-adv-x="1017" d="M70 393v127h878v-127h-878zM70 831v127h878v-127h-878z" />
<glyph unicode="&#x3e;" horiz-adv-x="1017" d="M70 268v146l706 262v8l-706 262v146l878 -344v-136z" />
<glyph unicode="?" horiz-adv-x="870" d="M78 1227q149 170 344 170q159 0 254.5 -88.5t95.5 -239.5q0 -73 -34 -142.5t-80.5 -125.5t-92 -113.5t-72.5 -130t-18 -151.5h-147q-9 65 1.5 125t34.5 106.5t55.5 90.5t64.5 84t60.5 78t45.5 81.5t18 87.5q0 86 -52 142t-146 56q-136 0 -236 -118zM285 102 q0 58 34.5 94.5t86.5 36.5t87 -36.5t35 -94.5q0 -55 -35 -91t-87 -36q-51 0 -86 36t-35 91z" />
<glyph unicode="@" horiz-adv-x="1734" d="M104 416q0 201 69 372.5t186 287.5t272 181.5t327 65.5q308 0 490 -186.5t182 -491.5q0 -129 -37.5 -235.5t-97.5 -172t-131 -101.5t-143 -36q-86 0 -143.5 40.5t-67.5 115.5h-4q-53 -63 -119 -101t-131 -38q-108 0 -177 76.5t-69 212.5q0 83 28 167t77.5 152.5t125 112 t162.5 43.5q110 0 164 -99h4l23 82h112l-80 -409q-61 -240 111 -240q49 0 97.5 29.5t88 82t64 134.5t24.5 178q0 167 -63 294.5t-192.5 202t-311.5 74.5q-137 0 -266 -56.5t-229.5 -157t-161 -250.5t-60.5 -324q0 -195 80.5 -338.5t218 -216t312.5 -72.5q171 0 331 92 l45 -100q-172 -104 -389 -104q-121 0 -229 30t-198 91t-155.5 147.5t-102 205.5t-36.5 259zM645 416q0 -94 39 -139.5t104 -45.5q88 0 189 121l59 326q-29 47 -59 66.5t-72 19.5q-58 0 -108.5 -32.5t-82.5 -84t-50.5 -112t-18.5 -119.5z" />
<glyph unicode="A" horiz-adv-x="1114" d="M6 0l455 1343h192l455 -1343h-182l-127 410h-490l-129 -410h-174zM352 547h404l-64 205q-67 204 -135 452h-8q-60 -230 -133 -452z" />
<glyph unicode="B" horiz-adv-x="1204" d="M184 0v1343h400q216 0 338 -79t122 -248q0 -104 -59.5 -183.5t-173.5 -109.5v-8q150 -24 230.5 -105t80.5 -217q0 -192 -138 -292.5t-372 -100.5h-428zM354 135h234q177 0 271.5 66t94.5 200q0 242 -366 242h-234v-508zM354 770h199q168 0 246 58t78 173q0 107 -78.5 157 t-237.5 50h-207v-438z" />
<glyph unicode="C" horiz-adv-x="1169" d="M106 672q0 318 168 507t431 189q114 0 207.5 -46.5t158.5 -119.5l-96 -108q-115 125 -268 125q-193 0 -308.5 -147t-115.5 -396q0 -253 112 -402t303 -149q177 0 310 149l96 -104q-168 -195 -410 -195q-127 0 -234.5 48t-186 136t-123 220t-44.5 293z" />
<glyph unicode="D" horiz-adv-x="1259" d="M184 0v1343h336q309 0 472 -172t163 -493q0 -323 -162 -500.5t-465 -177.5h-344zM354 139h154q232 0 351.5 140.5t119.5 398.5q0 256 -119 391t-352 135h-154v-1065z" />
<glyph unicode="E" horiz-adv-x="1079" d="M184 0v1343h774v-143h-604v-422h510v-145h-510v-488h625v-145h-795z" />
<glyph unicode="F" horiz-adv-x="1011" d="M184 0v1343h774v-143h-604v-455h512v-143h-512v-602h-170z" />
<glyph unicode="G" horiz-adv-x="1263" d="M106 672q0 159 46.5 290.5t128.5 220t196 137t248 48.5q227 0 385 -166l-96 -108q-118 125 -287 125q-203 0 -323.5 -146.5t-120.5 -396.5q0 -257 116.5 -404t329.5 -147q72 0 137 21.5t105 58.5v350h-285v141h440v-565q-69 -71 -177 -113.5t-238 -42.5q-176 0 -312.5 82 t-214.5 241t-78 374z" />
<glyph unicode="H" horiz-adv-x="1335" d="M184 0v1343h170v-563h625v563h172v-1343h-172v633h-625v-633h-170z" />
<glyph unicode="I" horiz-adv-x="538" d="M184 0v1343h170v-1343h-170z" />
<glyph unicode="J" horiz-adv-x="983" d="M63 190l123 86q84 -151 232 -151q109 0 162 68t53 219v931h172v-948q0 -71 -13 -132.5t-42 -115t-72 -91.5t-105 -59.5t-139 -21.5q-252 0 -371 215z" />
<glyph unicode="K" horiz-adv-x="1185" d="M184 0v1343h170v-673h6l560 673h192l-420 -512l486 -831h-191l-401 698l-232 -272v-426h-170z" />
<glyph unicode="L" horiz-adv-x="995" d="M184 0v1343h170v-1198h588v-145h-758z" />
<glyph unicode="M" horiz-adv-x="1488" d="M184 0v1343h201l260 -720l98 -275h9l94 275l258 720h201v-1343h-162v739q0 136 22 398h-8l-108 -299l-258 -703h-97l-260 703l-106 299h-9q1 -19 8.5 -117.5t11 -162.5t3.5 -118v-739h-158z" />
<glyph unicode="N" horiz-adv-x="1325" d="M184 0v1343h176l486 -843l145 -279h8q-20 337 -20 428v694h162v-1343h-176l-488 846l-145 276h-8q22 -297 22 -420v-702h-162z" />
<glyph unicode="O" horiz-adv-x="1359" d="M106 678q0 318 158.5 504t415.5 186t416 -186.5t159 -503.5q0 -321 -159.5 -512t-415.5 -191t-415 191t-159 512zM283 678q0 -252 108.5 -402.5t288.5 -150.5t288.5 150.5t108.5 402.5q0 249 -108 395t-289 146t-289 -146t-108 -395z" />
<glyph unicode="P" horiz-adv-x="1179" d="M184 0v1343h412q115 0 203.5 -20.5t155.5 -66t102 -123t35 -185.5q0 -206 -133.5 -311t-362.5 -105h-242v-532h-170zM354 672h221q176 0 261.5 67t85.5 209t-83.5 200t-263.5 58h-221v-534z" />
<glyph unicode="Q" horiz-adv-x="1359" d="M106 678q0 318 158.5 504t415.5 186t416 -186.5t159 -503.5q0 -287 -129 -472t-346 -222q45 -87 131.5 -132t198.5 -45q63 0 141 21l33 -133q-91 -31 -192 -31q-179 0 -307 86.5t-189 231.5q-223 31 -356.5 217t-133.5 479zM283 678q0 -257 108 -409t289 -152t289 152 t108 409q0 249 -108 395t-289 146t-289 -146t-108 -395z" />
<glyph unicode="R" horiz-adv-x="1189" d="M184 0v1343h420q471 0 471 -376q0 -153 -80 -249.5t-221 -131.5l340 -586h-192l-324 567h-244v-567h-170zM354 707h226q158 0 241.5 65.5t83.5 194.5q0 128 -81 183.5t-244 55.5h-226v-499z" />
<glyph unicode="S" horiz-adv-x="1093" d="M86 174l102 119q74 -77 171.5 -122.5t199.5 -45.5q131 0 206 60t75 159q0 40 -12.5 72.5t-28.5 53.5t-50.5 43.5t-59 34.5t-73.5 34l-192 84q-272 114 -272 346q0 154 119 255t302 101q116 0 219.5 -45t178.5 -121l-92 -110q-134 127 -306 127q-113 0 -181 -53.5 t-68 -143.5q0 -37 14.5 -69t32 -52t53.5 -41.5t58 -32t65 -28.5l190 -82q64 -28 110 -57.5t86 -72t60.5 -100t20.5 -129.5q0 -164 -125 -273.5t-332 -109.5q-138 0 -259.5 53t-211.5 146z" />
<glyph unicode="T" horiz-adv-x="1097" d="M57 1200v143h983v-143h-405v-1200h-172v1200h-406z" />
<glyph unicode="U" horiz-adv-x="1320" d="M178 555v788h170v-792q0 -426 314 -426q317 0 317 426v792h164v-788q0 -157 -36 -272t-102.5 -181t-151 -96.5t-191.5 -30.5t-192 30.5t-152 96.5t-103.5 181t-36.5 272z" />
<glyph unicode="V" horiz-adv-x="1054" d="M0 1343h182l215 -725q20 -65 61.5 -211t69.5 -233h9q28 91 71.5 244.5t57.5 199.5l215 725h174l-426 -1343h-199z" />
<glyph unicode="W" horiz-adv-x="1609" d="M47 1343h176l142 -731q12 -73 38 -217t39 -217h9l94 434l186 731h156l186 -731l98 -434h9q73 423 75 434l142 731h164l-279 -1343h-205l-203 809q-32 132 -65 305h-8q-12 -62 -38.5 -176t-29.5 -129l-198 -809h-203z" />
<glyph unicode="X" horiz-adv-x="1050" d="M31 0l391 694l-365 649h189l182 -344q24 -42 104 -194h9q64 134 96 194l178 344h180l-366 -657l391 -686h-189l-196 362l-115 216h-8q-39 -82 -106 -216l-195 -362h-180z" />
<glyph unicode="Y" horiz-adv-x="974" d="M-2 1343h182l174 -378l129 -293h9q113 241 135 293l172 378h178l-404 -823v-520h-172v520z" />
<glyph unicode="Z" horiz-adv-x="1103" d="M92 0v102l707 1098h-643v143h856v-100l-709 -1098h715v-145h-926z" />
<glyph unicode="[" horiz-adv-x="620" d="M193 -311v1761h366v-96h-240v-1569h240v-96h-366z" />
<glyph unicode="\" horiz-adv-x="716" d="M29 1454h121l546 -1782h-121z" />
<glyph unicode="]" horiz-adv-x="620" d="M63 -215h238v1569h-238v96h365v-1761h-365v96z" />
<glyph unicode="^" horiz-adv-x="1017" d="M123 582l311 790h150l311 -790h-147l-234 632h-8l-103 -272l-133 -360h-147z" />
<glyph unicode="_" horiz-adv-x="1024" d="M25 -145h974v-113h-974v113z" />
<glyph unicode="`" horiz-adv-x="1110" d="M328 1462h176l184 -288h-129z" />
<glyph unicode="a" horiz-adv-x="1048" d="M119 258q0 162 146 250t466 123q0 51 -9.5 93t-31.5 79t-64 57.5t-100 20.5q-140 0 -297 -107l-67 117q201 129 391 129q177 0 261.5 -108t84.5 -302v-610h-139l-15 119h-4q-177 -144 -329 -144q-129 0 -211 76t-82 207zM285 270q0 -81 48 -120t126 -39q69 0 132.5 32.5 t139.5 100.5v276q-242 -30 -344 -90.5t-102 -159.5z" />
<glyph unicode="b" horiz-adv-x="1136" d="M168 0v1458h168v-397l-4 -180q156 139 311 139q190 0 292.5 -135.5t102.5 -370.5q0 -124 -35 -227t-95 -170.5t-137 -104.5t-163 -37q-145 0 -284 123h-7l-14 -98h-135zM336 221q120 -104 244 -104q125 0 204.5 107t79.5 288q0 173 -63.5 270t-198.5 97q-121 0 -266 -136 v-522z" />
<glyph unicode="c" horiz-adv-x="933" d="M94 496q0 122 38.5 222.5t105 165.5t152.5 100.5t183 35.5q163 0 291 -119l-84 -108q-102 88 -200 88q-136 0 -224 -107t-88 -278q0 -170 85 -275.5t222 -105.5q123 0 234 100l76 -111q-145 -129 -324 -129q-204 0 -335.5 140t-131.5 381z" />
<glyph unicode="d" horiz-adv-x="1136" d="M96 496q0 118 35.5 218t95.5 166t138 103t163 37q81 0 144 -28t135 -87l-8 170v383h170v-1458h-140l-14 117h-6q-146 -142 -301 -142q-190 0 -301 137.5t-111 383.5zM270 498q0 -179 72.5 -280t202.5 -101q132 0 254 137v520q-116 105 -242 105q-122 0 -204.5 -106.5 t-82.5 -274.5z" />
<glyph unicode="e" horiz-adv-x="1015" d="M94 496q0 118 38 218.5t100.5 166.5t142.5 102.5t166 36.5q188 0 292.5 -125.5t104.5 -341.5q0 -55 -6 -92h-672q9 -161 99 -255.5t233 -94.5q127 0 248 77l59 -110q-161 -103 -328 -103q-205 0 -341 141.5t-136 379.5zM258 571h533q0 152 -64.5 234t-181.5 82 q-109 0 -190.5 -85t-96.5 -231z" />
<glyph unicode="f" horiz-adv-x="598" d="M61 858v127l136 10v158q0 157 72 243.5t218 86.5q83 0 166 -33l-37 -129q-58 25 -112 25q-139 0 -139 -193v-158h210v-137h-210v-858h-168v858h-136z" />
<glyph unicode="g" horiz-adv-x="1032" d="M92 -190q0 62 38.5 120t107.5 105v8q-88 56 -88 162q0 58 31.5 105.5t76.5 78.5v8q-55 44 -92 115t-37 154q0 158 109 256t266 98q75 0 141 -25h346v-129h-205q37 -35 59.5 -89t22.5 -115q0 -156 -104 -251.5t-260 -95.5q-82 0 -150 35q-63 -56 -63 -119q0 -108 176 -108 h192q176 0 262.5 -57.5t86.5 -180.5q0 -143 -139.5 -243.5t-364.5 -100.5q-187 0 -299.5 71t-112.5 198zM240 -168q0 -80 77 -127t211 -47q138 0 227 61t89 142q0 67 -50 95t-151 28h-172q-72 0 -129 16q-102 -72 -102 -168zM293 666q0 -106 61 -172t150 -66t150 66t61 172 t-60 168.5t-151 62.5t-151 -62.5t-60 -168.5z" />
<glyph unicode="h" horiz-adv-x="1114" d="M168 0v1458h168v-397l-6 -205q82 78 160 121t172 43q303 0 303 -389v-631h-168v608q0 139 -45.5 202.5t-143.5 63.5q-72 0 -131 -35.5t-141 -117.5v-721h-168z" />
<glyph unicode="i" horiz-adv-x="503" d="M137 1309q0 49 33.5 78.5t83.5 29.5t83.5 -29.5t33.5 -78.5q0 -47 -33.5 -78t-83.5 -31t-83.5 31t-33.5 78zM168 0v995h168v-995h-168z" />
<glyph unicode="j" horiz-adv-x="505" d="M-82 -418l35 127q50 -16 94 -16q70 0 96.5 48t26.5 146v1108h168v-1108q0 -160 -64.5 -245.5t-207.5 -85.5q-83 0 -148 26zM139 1309q0 49 33.5 78.5t83.5 29.5q49 0 82 -30t33 -78q0 -47 -33.5 -78t-81.5 -31q-50 0 -83.5 31t-33.5 78z" />
<glyph unicode="k" horiz-adv-x="1013" d="M168 0v1458h166v-987h6l424 524h186l-334 -399l379 -596h-184l-291 479l-186 -217v-262h-166z" />
<glyph unicode="l" horiz-adv-x="522" d="M168 201v1257h168v-1270q0 -37 13 -55t34 -18q19 0 37 4l22 -127q-39 -17 -96 -17q-93 0 -135.5 57t-42.5 169z" />
<glyph unicode="m" horiz-adv-x="1697" d="M168 0v995h139l15 -143h6q154 168 309 168q208 0 274 -191q85 93 164 142t164 49q303 0 303 -389v-631h-168v608q0 138 -45 202t-139 64q-112 0 -250 -153v-721h-168v608q0 139 -45 202.5t-141 63.5q-112 0 -250 -153v-721h-168z" />
<glyph unicode="n" horiz-adv-x="1120" d="M168 0v995h139l15 -143h6q80 80 159.5 124t174.5 44q303 0 303 -389v-631h-168v608q0 139 -45.5 202.5t-143.5 63.5q-72 0 -131 -35.5t-141 -117.5v-721h-168z" />
<glyph unicode="o" horiz-adv-x="1110" d="M94 496q0 122 37.5 222.5t101.5 165.5t147 100.5t175 35.5t175 -35.5t147 -100.5t101.5 -165.5t37.5 -222.5q0 -120 -37.5 -220t-101.5 -165t-147 -100.5t-175 -35.5t-175 35.5t-147 100.5t-101.5 165t-37.5 220zM268 496q0 -170 79.5 -275.5t207.5 -105.5 q129 0 208 105.5t79 275.5q0 172 -79 278.5t-208 106.5q-128 0 -207.5 -106.5t-79.5 -278.5z" />
<glyph unicode="p" horiz-adv-x="1136" d="M168 -420v1415h139l15 -114h6q165 139 317 139q189 0 291 -136t102 -372q0 -123 -35 -226t-94.5 -170t-137 -104t-163.5 -37q-129 0 -276 115l4 -174v-336h-168zM336 221q123 -104 244 -104q125 0 204.5 107t79.5 288q0 173 -63.5 270t-198.5 97q-115 0 -266 -136v-522z " />
<glyph unicode="q" horiz-adv-x="1126" d="M96 496q0 118 35.5 218t95.5 166t138 103t163 37q83 0 148.5 -28.5t136.5 -90.5h4l17 94h135v-1415h-170v354l8 177q-147 -136 -299 -136q-190 0 -301 137.5t-111 383.5zM270 498q0 -179 72.5 -280t202.5 -101q132 0 254 137v520q-116 105 -242 105q-122 0 -204.5 -106.5 t-82.5 -274.5z" />
<glyph unicode="r" horiz-adv-x="710" d="M168 0v995h139l15 -180h6q52 96 125.5 150.5t156.5 54.5q58 0 107 -21l-33 -147q-53 16 -96 16q-69 0 -136.5 -55.5t-115.5 -173.5v-639h-168z" />
<glyph unicode="s" horiz-adv-x="858" d="M57 113l84 112q71 -58 140.5 -88.5t152.5 -30.5q94 0 145.5 44t51.5 112q0 29 -14.5 55t-33 43.5t-54 36t-59.5 28.5t-67 26q-51 18 -86 33t-78.5 41t-69.5 53.5t-44.5 69t-18.5 89.5q0 123 92.5 203t250.5 80q168 0 309 -113l-80 -106q-117 88 -227 88q-89 0 -136 -41.5 t-47 -102.5q0 -32 16 -57.5t45.5 -43.5t63.5 -33t76 -31q4 -1 5.5 -1.5l4.5 -1.5t5.5 -2t4.5 -2q41 -15 62.5 -23.5t59 -26t59 -32t48.5 -38.5t41 -49t24 -59t10 -73q0 -127 -97 -212t-268 -85q-101 0 -199 38t-172 100z" />
<glyph unicode="t" horiz-adv-x="692" d="M49 858v127l156 10l20 279h142v-279h268v-137h-268v-553q0 -97 35 -144.5t118 -47.5q42 0 113 26l33 -127q-113 -37 -185 -37q-152 0 -218 87t-66 245v551h-148z" />
<glyph unicode="u" horiz-adv-x="1114" d="M154 365v630h170v-608q0 -140 44 -203t142 -63q75 0 135.5 39t132.5 129v706h168v-995h-139l-14 156h-7q-75 -89 -152.5 -135t-174.5 -46q-305 0 -305 390z" />
<glyph unicode="v" horiz-adv-x="956" d="M25 995h174l188 -565q40 -137 92 -293h8q7 22 40.5 129t50.5 164l188 565h166l-352 -995h-197z" />
<glyph unicode="w" horiz-adv-x="1470" d="M49 995h172l148 -575q24 -98 59 -277h8q6 25 29.5 124.5t38.5 152.5l153 575h164l156 -575l70 -277h8q14 55 61 277l146 575h159l-266 -995h-205l-143 535q-14 51 -35.5 147.5t-32.5 138.5h-8q-56 -245 -69 -289l-140 -532h-196z" />
<glyph unicode="x" horiz-adv-x="913" d="M29 0l325 520l-301 475h183l133 -219q87 -148 98 -166h8q65 123 90 166l121 219h176l-301 -493l324 -502h-183l-145 231q-87 147 -108 179h-9q-27 -43 -100 -179l-135 -231h-176z" />
<glyph unicode="y" horiz-adv-x="956" d="M25 995h174l202 -551q41 -113 97 -280h8q16 51 45 150t39 130l178 551h164l-375 -1077q-28 -79 -60 -138t-76.5 -108t-104 -74.5t-132.5 -25.5q-61 0 -116 20l32 134q50 -15 76 -15q154 0 225 213l23 74z" />
<glyph unicode="z" horiz-adv-x="870" d="M63 0v90l525 768h-467v137h680v-90l-525 -768h541v-137h-754z" />
<glyph unicode="{" horiz-adv-x="620" d="M70 516v107q50 1 86 14t54.5 36t27 49.5t8.5 57.5q0 68 -9.5 195t-9.5 203q0 153 57 212.5t183 59.5h92v-96h-55q-81 0 -110 -42t-29 -145q0 -61 6 -180t6 -190q0 -100 -28.5 -152.5t-94.5 -71.5v-8q66 -19 94.5 -71.5t28.5 -151.5q0 -71 -6 -190.5t-6 -180.5 q0 -103 29 -144.5t110 -41.5h55v-96h-92q-126 0 -183 59.5t-57 212.5q0 77 9.5 202.5t9.5 192.5q0 157 -176 160z" />
<glyph unicode="|" horiz-adv-x="493" d="M188 -512v2048h119v-2048h-119z" />
<glyph unicode="}" horiz-adv-x="620" d="M63 -215h54q81 0 110 41.5t29 144.5q0 61 -5 180.5t-5 190.5q0 99 28 151.5t93 71.5v8q-65 19 -93 71t-28 153q0 71 5 190t5 180q0 103 -29 145t-110 42h-54v96h91q127 0 183 -59t56 -213q0 -76 -9 -203t-9 -195q0 -67 40.5 -111.5t135.5 -45.5v-107q-65 -1 -106 -25 t-55.5 -57.5t-14.5 -77.5q0 -67 9 -192.5t9 -202.5q0 -154 -56 -213t-183 -59h-91v96z" />
<glyph unicode="~" horiz-adv-x="1017" d="M74 641q53 94 119.5 139t136.5 45q45 0 88 -17.5t77 -43t66 -51t66 -43t65 -17.5q91 0 158 125l94 -69q-53 -93 -119.5 -138t-136.5 -45q-45 0 -88 17.5t-77 43t-66 51t-66 43t-65 17.5q-91 0 -158 -125z" />
<glyph unicode="&#xa1;" horiz-adv-x="591" d="M174 893q0 55 35.5 91t87.5 36q50 0 85.5 -36t35.5 -91q0 -57 -35 -94t-86 -37q-52 0 -87.5 36.5t-35.5 94.5zM211 -377l4 193l23 774h116l23 -774l4 -193h-170z" />
<glyph unicode="&#xa2;" horiz-adv-x="1017" d="M125 635q0 205 115.5 332t296.5 153v217h106v-211q150 -8 268 -118l-82 -107q-91 81 -186 86v-704q114 8 213 96l74 -107q-130 -117 -287 -129v-211h-106v213q-188 22 -300 150t-112 340zM293 635q0 -137 64.5 -227.5t179.5 -116.5v686q-113 -26 -178.5 -117t-65.5 -225z " />
<glyph unicode="&#xa3;" horiz-adv-x="1017" d="M109 584v106l137 8h37q-1 4 -8.5 28t-9.5 30t-8.5 27t-8.5 29.5t-6.5 27t-6 29.5t-4 27t-3.5 30t-1 28q0 172 105 274.5t276 102.5q193 0 318 -153l-99 -97q-88 109 -206 109q-108 0 -168 -66t-60 -174q0 -40 8 -88t16 -76.5t25 -87.5h326v-114h-299q10 -62 10 -115 q0 -103 -31 -176t-96 -139v-9h576v-145h-817v102q103 56 160 154t57 215q0 44 -15 113h-204z" />
<glyph unicode="&#xa4;" horiz-adv-x="1017" d="M53 303l131 133q-73 98 -73 238q0 141 73 239l-131 136l90 92l140 -144q98 76 227 76q127 0 225 -76l139 144l91 -92l-134 -136q76 -102 76 -239q0 -136 -76 -238l134 -133l-91 -92l-139 141q-96 -78 -225 -78q-131 0 -227 78l-140 -141zM266 674q0 -121 71 -198t173 -77 q101 0 171.5 77.5t70.5 197.5t-70.5 197t-171.5 77q-102 0 -173 -77t-71 -197z" />
<glyph unicode="&#xa5;" horiz-adv-x="1017" d="M47 1307h176l160 -351l123 -276h8q26 56 70 154.5t55 121.5l160 351h172l-336 -656h291v-96h-334v-133h334v-98h-334v-324h-168v324h-332v98h332v133h-332v96h289z" />
<glyph unicode="&#xa6;" horiz-adv-x="493" d="M188 438h119v-950h-119v950zM188 596v940h119v-940h-119z" />
<glyph unicode="&#xa7;" horiz-adv-x="1017" d="M92 702q0 85 47.5 152.5t128.5 112.5q-65 68 -65 168q0 112 82 189t229 77q170 0 315 -117l-81 -108q-117 94 -228 94q-82 0 -122 -36t-40 -93q0 -44 31.5 -80t81.5 -62t110.5 -51.5t121 -57t110.5 -70.5t81.5 -100t31.5 -138q0 -91 -45 -154t-129 -111q61 -70 61 -167 q0 -122 -93 -201.5t-237 -79.5q-107 0 -198.5 38t-155.5 107l102 92q109 -106 252 -106q80 0 127 40.5t47 100.5q0 47 -31 84t-81 63.5t-110.5 51.5t-120.5 56t-110 69.5t-81 99t-31 137.5zM240 713q0 -51 25.5 -91.5t73 -70.5t95.5 -52t114 -51t107 -53q63 29 93 69t30 105 q0 44 -19.5 81t-49 62t-74.5 50t-86.5 42.5t-94.5 41.5t-89 45q-62 -34 -93.5 -76t-31.5 -102z" />
<glyph unicode="&#xa8;" horiz-adv-x="1110" d="M279 1305q0 43 28.5 71.5t71.5 28.5t71.5 -28.5t28.5 -71.5t-28.5 -72t-71.5 -29t-71.5 29t-28.5 72zM633 1305q0 43 27.5 71.5t70.5 28.5q44 0 72 -28.5t28 -71.5t-28 -72t-72 -29q-42 0 -70 29t-28 72z" />
<glyph unicode="&#xa9;" horiz-adv-x="1523" d="M100 662q0 152 53.5 280.5t144 214t211 133t253.5 47.5t253 -47.5t211 -133t144 -214t53 -280.5q0 -153 -53.5 -283t-143.5 -217t-210.5 -136t-253.5 -49t-253.5 49t-211 136t-144 217t-53.5 283zM197 662q0 -131 45 -244t121.5 -190t180 -121t218.5 -44t218.5 44 t180 121t121.5 190t45 244q0 130 -45 242t-121.5 187.5t-180 118.5t-218.5 43t-218.5 -43t-180 -118.5t-121.5 -187.5t-45 -242zM406 662q0 173 111.5 280t266.5 107q80 0 140 -30.5t116 -86.5l-71 -80q-87 84 -178 84q-112 0 -181 -76.5t-69 -197.5q0 -135 66 -214t177 -79 q105 0 209 90l62 -86q-66 -57 -129 -87t-148 -30q-160 0 -266 110t-106 296z" />
<glyph unicode="&#xaa;" horiz-adv-x="706" d="M76 723q0 107 97 164.5t310 77.5q-2 72 -30.5 111.5t-96.5 39.5q-98 0 -206 -69l-48 86q139 88 273 88q235 0 235 -275v-401h-102l-14 76h-9q-104 -93 -206 -93q-91 0 -147 53.5t-56 141.5zM201 733q0 -102 114 -102q80 0 168 82v174q-152 -18 -217 -56t-65 -98z" />
<glyph unicode="&#xab;" horiz-adv-x="878" d="M92 453v127l279 317l73 -61l-241 -320l241 -323l-73 -58zM416 453v127l280 317l72 -61l-242 -320l242 -323l-72 -58z" />
<glyph unicode="&#xac;" horiz-adv-x="1017" d="M70 612v127h878v-526h-135v399h-743z" />
<glyph unicode="&#xad;" horiz-adv-x="636" d="M84 449v129h471v-129h-471z" />
<glyph unicode="&#xae;" horiz-adv-x="866" d="M47 1057q0 177 111.5 290t273.5 113q163 0 275 -113t112 -290t-112 -290.5t-275 -113.5q-161 0 -273 113.5t-112 290.5zM129 1057q0 -145 86.5 -236.5t216.5 -91.5q131 0 218 91.5t87 236.5q0 143 -87.5 236t-217.5 93t-216.5 -92.5t-86.5 -236.5zM285 854v416h155 q71 0 115.5 -32t44.5 -101q0 -37 -21.5 -69t-54.5 -44l94 -170h-94l-71 143h-84v-143h-84zM369 1063h53q42 0 65 18t23 52q0 67 -84 67h-57v-137z" />
<glyph unicode="&#xaf;" horiz-adv-x="1110" d="M305 1231v117h502v-117h-502z" />
<glyph unicode="&#xb0;" horiz-adv-x="677" d="M84 1139q0 118 75 191t181 73t181 -73t75 -191q0 -115 -75 -187.5t-181 -72.5t-181 72.5t-75 187.5zM186 1139q0 -72 43.5 -119t110.5 -47t110.5 47t43.5 119q0 75 -43 122.5t-111 47.5t-111 -47.5t-43 -122.5z" />
<glyph unicode="&#xb1;" horiz-adv-x="1017" d="M70 0v127h878v-127h-878zM70 623v127h372v389h133v-389h373v-127h-373v-363h-133v363h-372z" />
<glyph unicode="&#xb4;" horiz-adv-x="1110" d="M422 1174l184 288h176l-231 -288h-129z" />
<glyph unicode="&#xb5;" horiz-adv-x="1126" d="M168 -410v1405h168v-608q0 -139 45 -202.5t143 -63.5q75 0 134.5 39t132.5 129v706h167v-995h-139l-14 156h-4q-127 -172 -287 -172q-66 0 -110.5 18.5t-77.5 69.5l10 -185v-297h-168z" />
<glyph unicode="&#xb6;" horiz-adv-x="1146" d="M84 907q0 118 36.5 203.5t105 135.5t155.5 73.5t197 23.5h90v-880h-68q-153 0 -266.5 45.5t-181.5 147t-68 251.5zM778 -164v1507h172v-1507h-172z" />
<glyph unicode="&#xb7;" horiz-adv-x="509" d="M133 657q0 58 35.5 94.5t87.5 36.5q51 0 86 -37t35 -94q0 -55 -35.5 -91t-85.5 -36q-52 0 -87.5 36t-35.5 91z" />
<glyph unicode="&#xb8;" horiz-adv-x="1110" d="M395 -352q183 24 183 98q0 38 -32.5 61t-99.5 39l82 160h111l-53 -108q121 -41 121 -146q0 -83 -83.5 -129.5t-211.5 -58.5z" />
<glyph unicode="&#xba;" horiz-adv-x="747" d="M61 874q0 159 90 253t222 94q131 0 221 -94t90 -253q0 -158 -90 -252t-221 -94q-132 0 -222 94t-90 252zM190 874q0 -108 49.5 -174.5t133.5 -66.5t132 66t48 175q0 110 -48 176t-132 66t-133.5 -66t-49.5 -176z" />
<glyph unicode="&#xbb;" horiz-adv-x="878" d="M111 193l241 323l-241 320l71 61l281 -317v-127l-281 -318zM434 193l242 323l-242 320l74 61l278 -317v-127l-278 -318z" />
<glyph unicode="&#xbc;" horiz-adv-x="1599" d="M129 1176v86q116 21 197 81h108v-798h-131v631h-174zM369 -25l741 1393h115l-742 -1393h-114zM934 213v68l334 518h147v-492h119v-94h-119v-213h-119v213h-362zM1069 307h227v144l11 223h-9l-102 -166z" />
<glyph unicode="&#xbd;" horiz-adv-x="1654" d="M129 1176v86q116 21 197 81h108v-798h-131v631h-174zM328 -25l741 1393h115l-742 -1393h-114zM985 668q47 71 116.5 113t149.5 42q123 0 195 -67t72 -191q0 -54 -16.5 -102.5t-67 -113t-79.5 -96.5t-116 -121q-12 -13 -18 -19h338v-113h-549v76q108 97 166 152.5 t113.5 117.5t77.5 108.5t22 90.5q0 78 -41.5 123t-112.5 45q-92 0 -172 -117z" />
<glyph unicode="&#xbe;" horiz-adv-x="1630" d="M70 678l86 65q78 -118 202 -118q68 0 114 38.5t46 104.5q0 69 -64.5 105t-183.5 36v84q100 0 158.5 40.5t58.5 103.5q0 59 -38.5 93t-104.5 34q-84 0 -164 -97l-78 70q111 131 260 131q108 0 182 -58.5t74 -156.5q0 -132 -139 -195q73 -20 121.5 -71.5t48.5 -126.5 q0 -108 -81 -174t-201 -66q-94 0 -171.5 43.5t-125.5 114.5zM446 -25l742 1393h112l-741 -1393h-113zM963 213v68l335 518h148v-492h119v-94h-119v-213h-119v213h-364zM1100 307h227v144l10 223h-8l-102 -166z" />
<glyph unicode="&#xbf;" horiz-adv-x="870" d="M98 -74q0 62 24 122t60 105.5t76.5 97.5t73.5 99t51 110t10 130h150q9 -65 -1.5 -125t-34.5 -106.5t-55.5 -90.5t-65 -84t-61 -78t-45.5 -81.5t-18 -87.5q0 -86 51.5 -141.5t147.5 -55.5q133 0 233 117l99 -88q-152 -170 -344 -170q-160 0 -255.5 88t-95.5 239zM342 893 q0 55 35.5 91t87.5 36q50 0 85.5 -36t35.5 -91q0 -57 -35 -94t-86 -37q-52 0 -87.5 36.5t-35.5 94.5z" />
<glyph unicode="&#xc0;" horiz-adv-x="1114" d="M6 0l455 1343h192l455 -1343h-182l-127 410h-490l-129 -410h-174zM285 1675h192l180 -229h-141zM352 547h404l-64 205q-67 204 -135 452h-8q-60 -230 -133 -452z" />
<glyph unicode="&#xc1;" horiz-adv-x="1114" d="M6 0l455 1343h192l455 -1343h-182l-127 410h-490l-129 -410h-174zM352 547h404l-64 205q-67 204 -135 452h-8q-60 -230 -133 -452zM449 1446l180 229h192l-231 -229h-141z" />
<glyph unicode="&#xc2;" horiz-adv-x="1114" d="M6 0l455 1343h192l455 -1343h-182l-127 410h-490l-129 -410h-174zM276 1446l197 229h162l196 -229h-137l-137 139h-8l-137 -139h-136zM352 547h404l-64 205q-67 204 -135 452h-8q-60 -230 -133 -452z" />
<glyph unicode="&#xc3;" horiz-adv-x="1114" d="M6 0l455 1343h192l455 -1343h-182l-127 410h-490l-129 -410h-174zM258 1456q8 98 54 159.5t118 61.5q46 0 91 -26.5t83.5 -53t69.5 -26.5t53 27.5t29 78.5h94q-9 -97 -55.5 -159t-116.5 -62q-37 0 -73.5 16.5t-61 37t-54.5 37t-55 16.5q-31 0 -53 -27.5t-31 -79.5h-92z M352 547h404l-64 205q-67 204 -135 452h-8q-60 -230 -133 -452z" />
<glyph unicode="&#xc4;" horiz-adv-x="1114" d="M6 0l455 1343h192l455 -1343h-182l-127 410h-490l-129 -410h-174zM276 1565q0 44 29 72t72 28t71.5 -28t28.5 -72q0 -43 -28.5 -72t-71.5 -29t-72 29t-29 72zM352 547h404l-64 205q-67 204 -135 452h-8q-60 -230 -133 -452zM631 1565q0 44 28 72t72 28q43 0 71.5 -28 t28.5 -72q0 -43 -28.5 -72t-71.5 -29q-44 0 -72 29t-28 72z" />
<glyph unicode="&#xc5;" horiz-adv-x="1114" d="M6 0l455 1343h192l455 -1343h-182l-127 410h-490l-129 -410h-174zM352 547h404l-64 205q-67 204 -135 452h-8q-60 -230 -133 -452zM362 1612q0 81 53.5 130.5t137.5 49.5q83 0 137.5 -49.5t54.5 -130.5q0 -82 -54.5 -131t-137.5 -49q-84 0 -137.5 49t-53.5 131zM455 1612 q0 -49 28.5 -78t69.5 -29t68.5 29t27.5 78q0 46 -27.5 75t-68.5 29t-69.5 -29t-28.5 -75z" />
<glyph unicode="&#xc6;" horiz-adv-x="1683" d="M16 0l705 1343h842v-143h-570v-422h475v-145h-475v-488h590v-145h-762v391h-422l-202 -391h-181zM469 528h352v680h-8l-219 -438z" />
<glyph unicode="&#xc7;" horiz-adv-x="1169" d="M106 672q0 318 168 507t431 189q114 0 207.5 -46.5t158.5 -119.5l-96 -108q-115 125 -268 125q-193 0 -308.5 -147t-115.5 -396q0 -253 112 -402t303 -149q177 0 310 149l96 -104q-145 -167 -344 -190l-39 -82q121 -41 121 -146q0 -83 -83.5 -129.5t-211.5 -58.5l-19 84 q183 24 183 98q0 38 -31.5 61t-97.5 39l67 131q-242 18 -392.5 203t-150.5 492z" />
<glyph unicode="&#xc8;" horiz-adv-x="1079" d="M184 0v1343h774v-143h-604v-422h510v-145h-510v-488h625v-145h-795zM313 1675h193l180 -229h-141z" />
<glyph unicode="&#xc9;" horiz-adv-x="1079" d="M184 0v1343h774v-143h-604v-422h510v-145h-510v-488h625v-145h-795zM477 1446l180 229h193l-232 -229h-141z" />
<glyph unicode="&#xca;" horiz-adv-x="1079" d="M184 0v1343h774v-143h-604v-422h510v-145h-510v-488h625v-145h-795zM305 1446l197 229h162l196 -229h-137l-137 139h-8l-138 -139h-135z" />
<glyph unicode="&#xcb;" horiz-adv-x="1079" d="M184 0v1343h774v-143h-604v-422h510v-145h-510v-488h625v-145h-795zM305 1565q0 44 29 72t72 28t71.5 -28t28.5 -72q0 -43 -28.5 -72t-71.5 -29t-72 29t-29 72zM659 1565q0 44 28.5 72t72.5 28q43 0 71.5 -28t28.5 -72q0 -43 -28.5 -72t-71.5 -29q-44 0 -72.5 29 t-28.5 72z" />
<glyph unicode="&#xcc;" horiz-adv-x="538" d="M0 1675h193l182 -229h-142zM184 0v1343h170v-1343h-170z" />
<glyph unicode="&#xcd;" horiz-adv-x="538" d="M164 1446l180 229h193l-232 -229h-141zM184 0v1343h170v-1343h-170z" />
<glyph unicode="&#xce;" horiz-adv-x="538" d="M-8 1446l196 229h162l197 -229h-137l-138 139h-8l-137 -139h-135zM184 0v1343h170v-1343h-170z" />
<glyph unicode="&#xcf;" horiz-adv-x="538" d="M-8 1565q0 44 28.5 72t71.5 28t72 -28t29 -72q0 -43 -29 -72t-72 -29t-71.5 29t-28.5 72zM184 0v1343h170v-1343h-170zM346 1565q0 44 28 72t72 28q43 0 72 -28t29 -72q0 -43 -29 -72t-72 -29q-44 0 -72 29t-28 72z" />
<glyph unicode="&#xd0;" horiz-adv-x="1306" d="M68 657v88l161 9v589h336q309 0 472 -172t163 -493q0 -323 -162 -500.5t-465 -177.5h-344v657h-161zM399 139h154q232 0 351.5 140.5t119.5 398.5q0 256 -119 391t-352 135h-154v-450h306v-97h-306v-518z" />
<glyph unicode="&#xd1;" horiz-adv-x="1325" d="M184 0v1343h176l486 -843l145 -279h8q-20 337 -20 428v694h162v-1343h-176l-488 846l-145 276h-8q22 -297 22 -420v-702h-162zM373 1456q9 98 55.5 159.5t116.5 61.5q37 0 73.5 -16.5t60.5 -36.5t54 -36.5t55 -16.5q31 0 53 27.5t31 78.5h93q-9 -97 -55.5 -159 t-116.5 -62q-37 0 -73.5 16.5t-61 37t-54.5 37t-55 16.5q-31 0 -53 -27.5t-31 -79.5h-92z" />
<glyph unicode="&#xd2;" horiz-adv-x="1359" d="M106 678q0 318 158.5 504t415.5 186t416 -186.5t159 -503.5q0 -321 -159.5 -512t-415.5 -191t-415 191t-159 512zM283 678q0 -252 108.5 -402.5t288.5 -150.5t288.5 150.5t108.5 402.5q0 249 -108 395t-289 146t-289 -146t-108 -395zM412 1675h192l180 -229h-141z" />
<glyph unicode="&#xd3;" horiz-adv-x="1359" d="M106 678q0 318 158.5 504t415.5 186t416 -186.5t159 -503.5q0 -321 -159.5 -512t-415.5 -191t-415 191t-159 512zM283 678q0 -252 108.5 -402.5t288.5 -150.5t288.5 150.5t108.5 402.5q0 249 -108 395t-289 146t-289 -146t-108 -395zM575 1446l181 229h192l-231 -229 h-142z" />
<glyph unicode="&#xd4;" horiz-adv-x="1359" d="M106 678q0 318 158.5 504t415.5 186t416 -186.5t159 -503.5q0 -321 -159.5 -512t-415.5 -191t-415 191t-159 512zM283 678q0 -252 108.5 -402.5t288.5 -150.5t288.5 150.5t108.5 402.5q0 249 -108 395t-289 146t-289 -146t-108 -395zM401 1446l197 229h164l196 -229h-137 l-137 139h-8l-137 -139h-138z" />
<glyph unicode="&#xd5;" horiz-adv-x="1359" d="M106 678q0 318 158.5 504t415.5 186t416 -186.5t159 -503.5q0 -321 -159.5 -512t-415.5 -191t-415 191t-159 512zM283 678q0 -252 108.5 -402.5t288.5 -150.5t288.5 150.5t108.5 402.5q0 249 -108 395t-289 146t-289 -146t-108 -395zM383 1456q9 98 55.5 159.5 t118.5 61.5q46 0 91 -26.5t83.5 -53t69.5 -26.5q30 0 52.5 28t29.5 78h94q-9 -97 -56 -159t-118 -62q-45 0 -90 27t-83.5 53.5t-68.5 26.5q-31 0 -53 -27.5t-31 -79.5h-94z" />
<glyph unicode="&#xd6;" horiz-adv-x="1359" d="M106 678q0 318 158.5 504t415.5 186t416 -186.5t159 -503.5q0 -321 -159.5 -512t-415.5 -191t-415 191t-159 512zM283 678q0 -252 108.5 -402.5t288.5 -150.5t288.5 150.5t108.5 402.5q0 249 -108 395t-289 146t-289 -146t-108 -395zM403 1565q0 44 28.5 72t72.5 28 q43 0 71.5 -28t28.5 -72q0 -43 -28.5 -72t-71.5 -29q-44 0 -72.5 29t-28.5 72zM756 1565q0 44 28.5 72t71.5 28q44 0 72 -28t28 -72q0 -43 -28 -72t-72 -29q-43 0 -71.5 29t-28.5 72z" />
<glyph unicode="&#xd7;" horiz-adv-x="1017" d="M102 350l318 326l-318 323l91 93l317 -326l315 326l90 -93l-317 -323l317 -326l-90 -92l-315 328l-317 -328z" />
<glyph unicode="&#xd8;" horiz-adv-x="1359" d="M102 12l144 187q-135 187 -135 479q0 318 159 504t416 186q214 0 358 -129l130 166l94 -72l-142 -184q134 -187 134 -471q0 -320 -159.5 -511.5t-414.5 -191.5q-210 0 -360 134l-129 -170zM287 678q0 -198 69 -336l590 766q-105 111 -260 111q-182 0 -290.5 -146 t-108.5 -395zM426 238q107 -113 260 -113q180 0 288.5 150.5t108.5 402.5q0 194 -67 328z" />
<glyph unicode="&#xd9;" horiz-adv-x="1320" d="M178 555v788h170v-792q0 -426 314 -426q317 0 317 426v792h164v-788q0 -157 -36 -272t-102.5 -181t-151 -96.5t-191.5 -30.5t-192 30.5t-152 96.5t-103.5 181t-36.5 272zM393 1675h193l180 -229h-141z" />
<glyph unicode="&#xda;" horiz-adv-x="1320" d="M178 555v788h170v-792q0 -426 314 -426q317 0 317 426v792h164v-788q0 -157 -36 -272t-102.5 -181t-151 -96.5t-191.5 -30.5t-192 30.5t-152 96.5t-103.5 181t-36.5 272zM557 1446l180 229h193l-232 -229h-141z" />
<glyph unicode="&#xdb;" horiz-adv-x="1320" d="M178 555v788h170v-792q0 -426 314 -426q317 0 317 426v792h164v-788q0 -157 -36 -272t-102.5 -181t-151 -96.5t-191.5 -30.5t-192 30.5t-152 96.5t-103.5 181t-36.5 272zM383 1446l197 229h161l197 -229h-135l-137 139h-9l-137 -139h-137z" />
<glyph unicode="&#xdc;" horiz-adv-x="1320" d="M178 555v788h170v-792q0 -426 314 -426q317 0 317 426v792h164v-788q0 -157 -36 -272t-102.5 -181t-151 -96.5t-191.5 -30.5t-192 30.5t-152 96.5t-103.5 181t-36.5 272zM383 1565q0 44 28.5 72t71.5 28q44 0 72.5 -28t28.5 -72q0 -43 -28.5 -72t-72.5 -29 q-43 0 -71.5 29t-28.5 72zM737 1565q0 44 29 72t72 28t71.5 -28t28.5 -72q0 -43 -28.5 -72t-71.5 -29t-72 29t-29 72z" />
<glyph unicode="&#xdd;" horiz-adv-x="974" d="M-2 1343h182l174 -378l129 -293h9q113 241 135 293l172 378h178l-404 -823v-520h-172v520zM383 1446l180 229h193l-232 -229h-141z" />
<glyph unicode="&#xde;" horiz-adv-x="1193" d="M184 0v1343h170v-225h242q115 0 203.5 -21t155.5 -66.5t102 -123t35 -184.5q0 -207 -133 -311.5t-363 -104.5h-242v-307h-170zM354 446h221q176 0 261.5 67t85.5 210q0 141 -84 198.5t-263 57.5h-221v-533z" />
<glyph unicode="&#xdf;" horiz-adv-x="1179" d="M168 0v1055q0 195 105.5 309.5t295.5 114.5q155 0 244.5 -86t89.5 -213q0 -57 -19 -107.5t-46.5 -87t-55 -70.5t-46.5 -72.5t-19 -76.5q0 -40 22 -71.5t58 -54t78.5 -44t85.5 -48.5t79 -60t58 -86.5t22 -120.5q0 -132 -89 -219t-238 -87q-150 0 -289 101l67 119 q109 -89 217 -89q81 0 127 48t46 116q0 48 -22.5 86t-58 63t-78.5 47.5t-86 47t-78.5 54t-58 74.5t-22.5 103q0 51 18.5 97t45 81.5t53 70.5t45 78.5t18.5 90.5q0 80 -44 129t-126 49q-110 0 -170.5 -80.5t-60.5 -236.5v-1024h-168z" />
<glyph unicode="&#xe0;" horiz-adv-x="1048" d="M119 258q0 162 146 250t466 123q0 51 -9.5 93t-31.5 79t-64 57.5t-100 20.5q-140 0 -297 -107l-67 117q201 129 391 129q177 0 261.5 -108t84.5 -302v-610h-139l-15 119h-4q-177 -144 -329 -144q-129 0 -211 76t-82 207zM285 270q0 -81 48 -120t126 -39q69 0 132.5 32.5 t139.5 100.5v276q-242 -30 -344 -90.5t-102 -159.5zM324 1462h176l184 -288h-129z" />
<glyph unicode="&#xe1;" horiz-adv-x="1048" d="M119 258q0 162 146 250t466 123q0 51 -9.5 93t-31.5 79t-64 57.5t-100 20.5q-140 0 -297 -107l-67 117q201 129 391 129q177 0 261.5 -108t84.5 -302v-610h-139l-15 119h-4q-177 -144 -329 -144q-129 0 -211 76t-82 207zM285 270q0 -81 48 -120t126 -39q69 0 132.5 32.5 t139.5 100.5v276q-242 -30 -344 -90.5t-102 -159.5zM418 1174l184 288h176l-231 -288h-129z" />
<glyph unicode="&#xe2;" horiz-adv-x="1048" d="M119 258q0 162 146 250t466 123q0 51 -9.5 93t-31.5 79t-64 57.5t-100 20.5q-140 0 -297 -107l-67 117q201 129 391 129q177 0 261.5 -108t84.5 -302v-610h-139l-15 119h-4q-177 -144 -329 -144q-129 0 -211 76t-82 207zM285 270q0 -81 48 -120t126 -39q69 0 132.5 32.5 t139.5 100.5v276q-242 -30 -344 -90.5t-102 -159.5zM289 1174l192 288h140l194 -288h-123l-137 186h-8l-137 -186h-121z" />
<glyph unicode="&#xe3;" horiz-adv-x="1048" d="M119 258q0 162 146 250t466 123q0 51 -9.5 93t-31.5 79t-64 57.5t-100 20.5q-140 0 -297 -107l-67 117q201 129 391 129q177 0 261.5 -108t84.5 -302v-610h-139l-15 119h-4q-177 -144 -329 -144q-129 0 -211 76t-82 207zM266 1186q10 98 52.5 157.5t115.5 59.5 q34 0 69.5 -16.5t60 -36t52.5 -36t50 -16.5q57 0 75 105h97q-9 -97 -52.5 -157t-115.5 -60q-34 0 -69.5 16t-59.5 36t-53 36t-52 16q-59 0 -74 -104h-96zM285 270q0 -81 48 -120t126 -39q69 0 132.5 32.5t139.5 100.5v276q-242 -30 -344 -90.5t-102 -159.5z" />
<glyph unicode="&#xe4;" horiz-adv-x="1048" d="M119 258q0 162 146 250t466 123q0 51 -9.5 93t-31.5 79t-64 57.5t-100 20.5q-140 0 -297 -107l-67 117q201 129 391 129q177 0 261.5 -108t84.5 -302v-610h-139l-15 119h-4q-177 -144 -329 -144q-129 0 -211 76t-82 207zM274 1305q0 43 29 71.5t72 28.5t71.5 -28.5 t28.5 -71.5t-28.5 -72t-71.5 -29t-72 29t-29 72zM285 270q0 -81 48 -120t126 -39q69 0 132.5 32.5t139.5 100.5v276q-242 -30 -344 -90.5t-102 -159.5zM629 1305q0 43 28 71.5t72 28.5q43 0 70.5 -28.5t27.5 -71.5t-28 -72t-70 -29q-44 0 -72 29t-28 72z" />
<glyph unicode="&#xe5;" horiz-adv-x="1048" d="M119 258q0 162 146 250t466 123q0 51 -9.5 93t-31.5 79t-64 57.5t-100 20.5q-140 0 -297 -107l-67 117q201 129 391 129q177 0 261.5 -108t84.5 -302v-610h-139l-15 119h-4q-177 -144 -329 -144q-129 0 -211 76t-82 207zM285 270q0 -81 48 -120t126 -39q69 0 132.5 32.5 t139.5 100.5v276q-242 -30 -344 -90.5t-102 -159.5zM360 1300q0 84 53.5 136.5t137.5 52.5q85 0 138.5 -52.5t53.5 -136.5q0 -86 -53.5 -138t-138.5 -52q-84 0 -137.5 52.5t-53.5 137.5zM453 1300q0 -51 28.5 -82.5t69.5 -31.5q42 0 70 31.5t28 82.5q0 50 -28 81.5t-70 31.5 q-41 0 -69.5 -31.5t-28.5 -81.5z" />
<glyph unicode="&#xe6;" horiz-adv-x="1607" d="M119 258q0 161 144.5 249t457.5 124q0 250 -203 250q-132 0 -289 -107l-67 117q201 129 377 129q108 0 180 -56t104 -155q60 99 144.5 155t183.5 56q181 0 280 -126t99 -343q0 -57 -6 -94h-645q6 -154 93 -249t216 -95q113 0 242 82l61 -117q-161 -103 -324 -103 q-205 0 -350 187q-209 -187 -405 -187q-129 0 -211 76t-82 207zM285 270q0 -81 48 -120t126 -39q71 0 153 40.5t148 112.5q-36 79 -39 205v51q-231 -30 -333.5 -91t-102.5 -159zM879 569h503q0 154 -60.5 236t-174.5 82q-104 0 -179.5 -87t-88.5 -231z" />
<glyph unicode="&#xe7;" horiz-adv-x="933" d="M94 496q0 122 38.5 222.5t105 165.5t152.5 100.5t183 35.5q163 0 291 -119l-84 -108q-102 88 -200 88q-136 0 -224 -107t-88 -278q0 -170 85 -275.5t222 -105.5q123 0 234 100l76 -111q-122 -109 -271 -124l-39 -82q121 -42 121 -146q0 -83 -84 -129.5t-213 -58.5l-16 84 q182 24 182 98q0 38 -32.5 61t-98.5 39l68 134q-181 21 -294.5 157.5t-113.5 358.5z" />
<glyph unicode="&#xe8;" horiz-adv-x="1015" d="M94 496q0 118 38 218.5t100.5 166.5t142.5 102.5t166 36.5q188 0 292.5 -125.5t104.5 -341.5q0 -55 -6 -92h-672q9 -161 99 -255.5t233 -94.5q127 0 248 77l59 -110q-161 -103 -328 -103q-205 0 -341 141.5t-136 379.5zM258 571h533q0 152 -64.5 234t-181.5 82 q-109 0 -190.5 -85t-96.5 -231zM315 1462h174l187 -288h-131z" />
<glyph unicode="&#xe9;" horiz-adv-x="1015" d="M94 496q0 118 38 218.5t100.5 166.5t142.5 102.5t166 36.5q188 0 292.5 -125.5t104.5 -341.5q0 -55 -6 -92h-672q9 -161 99 -255.5t233 -94.5q127 0 248 77l59 -110q-161 -103 -328 -103q-205 0 -341 141.5t-136 379.5zM258 571h533q0 152 -64.5 234t-181.5 82 q-109 0 -190.5 -85t-96.5 -231zM408 1174l186 288h174l-231 -288h-129z" />
<glyph unicode="&#xea;" horiz-adv-x="1015" d="M94 496q0 118 38 218.5t100.5 166.5t142.5 102.5t166 36.5q188 0 292.5 -125.5t104.5 -341.5q0 -55 -6 -92h-672q9 -161 99 -255.5t233 -94.5q127 0 248 77l59 -110q-161 -103 -328 -103q-205 0 -341 141.5t-136 379.5zM258 571h533q0 152 -64.5 234t-181.5 82 q-109 0 -190.5 -85t-96.5 -231zM279 1174l194 288h137l195 -288h-123l-137 186h-8l-138 -186h-120z" />
<glyph unicode="&#xeb;" horiz-adv-x="1015" d="M94 496q0 118 38 218.5t100.5 166.5t142.5 102.5t166 36.5q188 0 292.5 -125.5t104.5 -341.5q0 -55 -6 -92h-672q9 -161 99 -255.5t233 -94.5q127 0 248 77l59 -110q-161 -103 -328 -103q-205 0 -341 141.5t-136 379.5zM258 571h533q0 152 -64.5 234t-181.5 82 q-109 0 -190.5 -85t-96.5 -231zM264 1305q0 43 29 71.5t72 28.5t71.5 -28.5t28.5 -71.5t-28.5 -72t-71.5 -29t-72 29t-29 72zM618 1305q0 43 28.5 71.5t72.5 28.5q43 0 71.5 -28.5t28.5 -71.5t-28.5 -72t-71.5 -29q-44 0 -72.5 29t-28.5 72z" />
<glyph unicode="&#xec;" horiz-adv-x="503" d="M25 1462h176l184 -288h-129zM168 0v995h168v-995h-168z" />
<glyph unicode="&#xed;" horiz-adv-x="503" d="M119 1174l184 288h176l-231 -288h-129zM168 0v995h168v-995h-168z" />
<glyph unicode="&#xee;" horiz-adv-x="503" d="M-10 1174l192 288h140l194 -288h-123l-137 186h-8l-137 -186h-121zM168 0v995h168v-995h-168z" />
<glyph unicode="&#xef;" horiz-adv-x="503" d="M-25 1305q0 43 29 71.5t72 28.5t71.5 -28.5t28.5 -71.5t-28.5 -72t-71.5 -29t-72 29t-29 72zM168 0v995h168v-995h-168zM330 1305q0 43 27.5 71.5t70.5 28.5q44 0 72 -28.5t28 -71.5t-28 -72t-72 -29q-42 0 -70 29t-28 72z" />
<glyph unicode="&#xf0;" horiz-adv-x="1116" d="M109 455q0 206 119.5 333t301.5 127q172 0 275 -135q-50 229 -219 394l-289 -150l-49 84l260 133q-114 87 -229 148l77 106q173 -94 283 -186l291 149l49 -84l-264 -135q278 -281 278 -713q0 -247 -121.5 -399t-320.5 -152q-87 0 -166.5 34t-141 94.5t-98 152 t-36.5 199.5zM268 455q0 -150 83.5 -245t203.5 -95q134 0 205 109.5t71 295.5q0 43 -4 113q-63 85 -129 118t-143 33q-133 0 -210 -92t-77 -237z" />
<glyph unicode="&#xf1;" horiz-adv-x="1120" d="M168 0v995h139l15 -143h6q80 80 159.5 124t174.5 44q303 0 303 -389v-631h-168v608q0 139 -45.5 202.5t-143.5 63.5q-72 0 -131 -35.5t-141 -117.5v-721h-168zM313 1186q8 97 51 157t115 60q43 0 87.5 -26.5t82 -52.5t64.5 -26q58 0 73 105h97q-8 -97 -51 -157t-115 -60 q-35 0 -70.5 16t-59.5 36t-52.5 36t-51.5 16q-30 0 -48 -25.5t-27 -78.5h-95z" />
<glyph unicode="&#xf2;" horiz-adv-x="1110" d="M94 496q0 122 37.5 222.5t101.5 165.5t147 100.5t175 35.5t175 -35.5t147 -100.5t101.5 -165.5t37.5 -222.5q0 -120 -37.5 -220t-101.5 -165t-147 -100.5t-175 -35.5t-175 35.5t-147 100.5t-101.5 165t-37.5 220zM268 496q0 -170 79.5 -275.5t207.5 -105.5 q129 0 208 105.5t79 275.5q0 172 -79 278.5t-208 106.5q-128 0 -207.5 -106.5t-79.5 -278.5zM328 1462h176l184 -288h-129z" />
<glyph unicode="&#xf3;" horiz-adv-x="1110" d="M94 496q0 122 37.5 222.5t101.5 165.5t147 100.5t175 35.5t175 -35.5t147 -100.5t101.5 -165.5t37.5 -222.5q0 -120 -37.5 -220t-101.5 -165t-147 -100.5t-175 -35.5t-175 35.5t-147 100.5t-101.5 165t-37.5 220zM268 496q0 -170 79.5 -275.5t207.5 -105.5 q129 0 208 105.5t79 275.5q0 172 -79 278.5t-208 106.5q-128 0 -207.5 -106.5t-79.5 -278.5zM422 1174l184 288h176l-231 -288h-129z" />
<glyph unicode="&#xf4;" horiz-adv-x="1110" d="M94 496q0 122 37.5 222.5t101.5 165.5t147 100.5t175 35.5t175 -35.5t147 -100.5t101.5 -165.5t37.5 -222.5q0 -120 -37.5 -220t-101.5 -165t-147 -100.5t-175 -35.5t-175 35.5t-147 100.5t-101.5 165t-37.5 220zM268 496q0 -170 79.5 -275.5t207.5 -105.5 q129 0 208 105.5t79 275.5q0 172 -79 278.5t-208 106.5q-128 0 -207.5 -106.5t-79.5 -278.5zM293 1174l192 288h140l194 -288h-123l-137 186h-8l-137 -186h-121z" />
<glyph unicode="&#xf5;" horiz-adv-x="1110" d="M94 496q0 122 37.5 222.5t101.5 165.5t147 100.5t175 35.5t175 -35.5t147 -100.5t101.5 -165.5t37.5 -222.5q0 -120 -37.5 -220t-101.5 -165t-147 -100.5t-175 -35.5t-175 35.5t-147 100.5t-101.5 165t-37.5 220zM268 496q0 -170 79.5 -275.5t207.5 -105.5 q129 0 208 105.5t79 275.5q0 172 -79 278.5t-208 106.5q-128 0 -207.5 -106.5t-79.5 -278.5zM270 1186q8 97 51 157t115 60q35 0 71 -16.5t60.5 -36t52.5 -36t50 -16.5q57 0 75 105h95q-8 -97 -51 -157t-115 -60q-34 0 -69.5 16t-59.5 36t-53 36t-52 16q-58 0 -73 -104h-97z " />
<glyph unicode="&#xf6;" horiz-adv-x="1110" d="M94 496q0 122 37.5 222.5t101.5 165.5t147 100.5t175 35.5t175 -35.5t147 -100.5t101.5 -165.5t37.5 -222.5q0 -120 -37.5 -220t-101.5 -165t-147 -100.5t-175 -35.5t-175 35.5t-147 100.5t-101.5 165t-37.5 220zM268 496q0 -170 79.5 -275.5t207.5 -105.5 q129 0 208 105.5t79 275.5q0 172 -79 278.5t-208 106.5q-128 0 -207.5 -106.5t-79.5 -278.5zM279 1305q0 43 28.5 71.5t71.5 28.5t71.5 -28.5t28.5 -71.5t-28.5 -72t-71.5 -29t-71.5 29t-28.5 72zM633 1305q0 43 27.5 71.5t70.5 28.5q44 0 72 -28.5t28 -71.5t-28 -72 t-72 -29q-42 0 -70 29t-28 72z" />
<glyph unicode="&#xf7;" horiz-adv-x="1017" d="M70 612v127h878v-127h-878zM397 307q0 47 32.5 78t80.5 31q46 0 78.5 -31t32.5 -78q0 -49 -32 -79.5t-79 -30.5q-48 0 -80.5 30.5t-32.5 79.5zM397 1044q0 47 32.5 78t80.5 31q46 0 78.5 -31t32.5 -78q0 -49 -32 -79.5t-79 -30.5q-48 0 -80.5 30.5t-32.5 79.5z" />
<glyph unicode="&#xf8;" horiz-adv-x="1110" d="M94 12l111 133q-111 144 -111 351q0 122 37.5 222.5t101.5 165.5t147 100.5t175 35.5q165 0 285 -102l102 124l74 -59l-111 -133q111 -144 111 -354q0 -120 -37.5 -220t-101.5 -165t-147 -100.5t-175 -35.5q-163 0 -285 101l-100 -123zM260 504q0 -140 47 -232l438 531 q-76 82 -190 82q-128 0 -211.5 -106.5t-83.5 -274.5zM365 190q79 -79 190 -79q130 0 212.5 105t82.5 273q0 140 -49 234z" />
<glyph unicode="&#xf9;" horiz-adv-x="1114" d="M154 365v630h170v-608q0 -140 44 -203t142 -63q75 0 135.5 39t132.5 129v706h168v-995h-139l-14 156h-7q-75 -89 -152.5 -135t-174.5 -46q-305 0 -305 390zM330 1462h176l186 -288h-131z" />
<glyph unicode="&#xfa;" horiz-adv-x="1114" d="M154 365v630h170v-608q0 -140 44 -203t142 -63q75 0 135.5 39t132.5 129v706h168v-995h-139l-14 156h-7q-75 -89 -152.5 -135t-174.5 -46q-305 0 -305 390zM424 1174l186 288h174l-231 -288h-129z" />
<glyph unicode="&#xfb;" horiz-adv-x="1114" d="M154 365v630h170v-608q0 -140 44 -203t142 -63q75 0 135.5 39t132.5 129v706h168v-995h-139l-14 156h-7q-75 -89 -152.5 -135t-174.5 -46q-305 0 -305 390zM295 1174l192 288h140l194 -288h-123l-137 186h-8l-137 -186h-121z" />
<glyph unicode="&#xfc;" horiz-adv-x="1114" d="M154 365v630h170v-608q0 -140 44 -203t142 -63q75 0 135.5 39t132.5 129v706h168v-995h-139l-14 156h-7q-75 -89 -152.5 -135t-174.5 -46q-305 0 -305 390zM281 1305q0 43 28.5 71.5t71.5 28.5t71.5 -28.5t28.5 -71.5t-28.5 -72t-71.5 -29t-71.5 29t-28.5 72zM635 1305 q0 43 28 71.5t72 28.5q43 0 72 -28.5t29 -71.5t-29 -72t-72 -29q-44 0 -72 29t-28 72z" />
<glyph unicode="&#xfd;" horiz-adv-x="956" d="M25 995h174l202 -551q41 -113 97 -280h8q16 51 45 150t39 130l178 551h164l-375 -1077q-28 -79 -60 -138t-76.5 -108t-104 -74.5t-132.5 -25.5q-61 0 -116 20l32 134q50 -15 76 -15q154 0 225 213l23 74zM365 1174l184 288h176l-231 -288h-129z" />
<glyph unicode="&#xfe;" horiz-adv-x="1136" d="M168 -420v1878h168v-397l-2 -170q162 129 303 129q193 0 297 -136t104 -372q0 -123 -35 -226t-94.5 -170t-137 -104t-163.5 -37q-131 0 -274 111l2 -170v-336h-168zM336 221q123 -104 244 -104q125 0 204.5 107t79.5 288q0 173 -63.5 270t-198.5 97q-115 0 -266 -136 v-522z" />
<glyph unicode="&#xff;" horiz-adv-x="956" d="M25 995h174l202 -551q41 -113 97 -280h8q16 51 45 150t39 130l178 551h164l-375 -1077q-28 -79 -60 -138t-76.5 -108t-104 -74.5t-132.5 -25.5q-61 0 -116 20l32 134q50 -15 76 -15q154 0 225 213l23 74zM221 1305q0 43 29 71.5t72 28.5t71.5 -28.5t28.5 -71.5t-28.5 -72 t-71.5 -29t-72 29t-29 72zM575 1305q0 43 28 71.5t71 28.5q44 0 72 -28.5t28 -71.5t-28 -72t-72 -29q-43 0 -71 29t-28 72z" />
<glyph unicode="&#x100;" horiz-adv-x="1114" d="M6 0l455 1343h192l455 -1343h-182l-127 410h-490l-129 -410h-174zM299 1493v117h508v-117h-508zM352 547h404l-64 205q-67 204 -135 452h-8q-60 -230 -133 -452z" />
<glyph unicode="&#x101;" horiz-adv-x="1048" d="M119 258q0 162 146 250t466 123q0 51 -9.5 93t-31.5 79t-64 57.5t-100 20.5q-140 0 -297 -107l-67 117q201 129 391 129q177 0 261.5 -108t84.5 -302v-610h-139l-15 119h-4q-177 -144 -329 -144q-129 0 -211 76t-82 207zM285 270q0 -81 48 -120t126 -39q69 0 132.5 32.5 t139.5 100.5v276q-242 -30 -344 -90.5t-102 -159.5zM301 1231v117h502v-117h-502z" />
<glyph unicode="&#x102;" horiz-adv-x="1114" d="M6 0l455 1343h192l455 -1343h-182l-127 410h-490l-129 -410h-174zM301 1675h105q10 -55 46.5 -92t100.5 -37t101.5 37t47.5 92h103q-10 -95 -73.5 -160t-178.5 -65t-177.5 64.5t-74.5 160.5zM352 547h404l-64 205q-67 204 -135 452h-8q-60 -230 -133 -452z" />
<glyph unicode="&#x103;" horiz-adv-x="1048" d="M119 258q0 162 146 250t466 123q0 51 -9.5 93t-31.5 79t-64 57.5t-100 20.5q-140 0 -297 -107l-67 117q201 129 391 129q177 0 261.5 -108t84.5 -302v-610h-139l-15 119h-4q-177 -144 -329 -144q-129 0 -211 76t-82 207zM285 270q0 -81 48 -120t126 -39q69 0 132.5 32.5 t139.5 100.5v276q-242 -30 -344 -90.5t-102 -159.5zM293 1438h104q8 -66 47.5 -111t106.5 -45t106.5 45t47.5 111h106q-4 -48 -20.5 -92t-46.5 -83t-80 -62t-113 -23t-113 23t-79.5 62t-46 83t-19.5 92z" />
<glyph unicode="&#x104;" horiz-adv-x="1114" d="M6 0l455 1343h192l455 -1343q-71 -29 -117.5 -91.5t-46.5 -127.5q0 -45 27.5 -69.5t66.5 -24.5q47 0 86 28l47 -92q-32 -24 -78 -40.5t-85 -16.5q-86 0 -141.5 46.5t-55.5 131.5q0 77 46.5 146t107.5 110h-39l-127 410h-490l-129 -410h-174zM352 547h404l-64 205 q-67 204 -135 452h-8q-60 -230 -133 -452z" />
<glyph unicode="&#x105;" horiz-adv-x="1048" d="M119 258q0 162 146 250t466 123q0 51 -9.5 93t-31.5 79t-64 57.5t-100 20.5q-140 0 -297 -107l-67 117q201 129 391 129q177 0 261.5 -108t84.5 -302v-610q-82 -33 -130 -93t-48 -122q0 -45 28 -69.5t68 -24.5q41 0 82 26l43 -84q-29 -23 -75.5 -39t-84.5 -16 q-81 0 -132.5 45.5t-51.5 128.5q0 77 48 145t116 111l-17 111h-4q-177 -144 -329 -144q-129 0 -211 76t-82 207zM285 270q0 -81 48 -120t126 -39q69 0 132.5 32.5t139.5 100.5v276q-242 -30 -344 -90.5t-102 -159.5z" />
<glyph unicode="&#x106;" horiz-adv-x="1169" d="M106 672q0 318 168 507t431 189q114 0 207.5 -46.5t158.5 -119.5l-96 -108q-115 125 -268 125q-193 0 -308.5 -147t-115.5 -396q0 -253 112 -402t303 -149q177 0 310 149l96 -104q-168 -195 -410 -195q-127 0 -234.5 48t-186 136t-123 220t-44.5 293zM571 1446l181 229 h192l-231 -229h-142z" />
<glyph unicode="&#x107;" horiz-adv-x="933" d="M94 496q0 122 38.5 222.5t105 165.5t152.5 100.5t183 35.5q163 0 291 -119l-84 -108q-102 88 -200 88q-136 0 -224 -107t-88 -278q0 -170 85 -275.5t222 -105.5q123 0 234 100l76 -111q-145 -129 -324 -129q-204 0 -335.5 140t-131.5 381zM436 1174l187 288h174 l-230 -288h-131z" />
<glyph unicode="&#x108;" horiz-adv-x="1169" d="M106 672q0 318 168 507t431 189q114 0 207.5 -46.5t158.5 -119.5l-96 -108q-115 125 -268 125q-193 0 -308.5 -147t-115.5 -396q0 -253 112 -402t303 -149q177 0 310 149l96 -104q-168 -195 -410 -195q-127 0 -234.5 48t-186 136t-123 220t-44.5 293zM399 1446l197 229 h162l196 -229h-137l-137 139h-8l-137 -139h-136z" />
<glyph unicode="&#x109;" horiz-adv-x="933" d="M94 496q0 122 38.5 222.5t105 165.5t152.5 100.5t183 35.5q163 0 291 -119l-84 -108q-102 88 -200 88q-136 0 -224 -107t-88 -278q0 -170 85 -275.5t222 -105.5q123 0 234 100l76 -111q-145 -129 -324 -129q-204 0 -335.5 140t-131.5 381zM307 1174l195 288h137l195 -288 h-121l-138 186h-8l-137 -186h-123z" />
<glyph unicode="&#x10a;" horiz-adv-x="1169" d="M106 672q0 318 168 507t431 189q114 0 207.5 -46.5t158.5 -119.5l-96 -108q-115 125 -268 125q-193 0 -308.5 -147t-115.5 -396q0 -253 112 -402t303 -149q177 0 310 149l96 -104q-168 -195 -410 -195q-127 0 -234.5 48t-186 136t-123 220t-44.5 293zM559 1573 q0 47 33.5 77.5t83.5 30.5t83.5 -30.5t33.5 -77.5q0 -49 -33.5 -80t-83.5 -31t-83.5 31t-33.5 80z" />
<glyph unicode="&#x10b;" horiz-adv-x="933" d="M94 496q0 122 38.5 222.5t105 165.5t152.5 100.5t183 35.5q163 0 291 -119l-84 -108q-102 88 -200 88q-136 0 -224 -107t-88 -278q0 -170 85 -275.5t222 -105.5q123 0 234 100l76 -111q-145 -129 -324 -129q-204 0 -335.5 140t-131.5 381zM459 1311q0 48 31.5 79t80.5 31 q47 0 79 -31.5t32 -78.5q0 -49 -31.5 -80t-79.5 -31q-50 0 -81 31t-31 80z" />
<glyph unicode="&#x10c;" horiz-adv-x="1169" d="M106 672q0 318 168 507t431 189q114 0 207.5 -46.5t158.5 -119.5l-96 -108q-115 125 -268 125q-193 0 -308.5 -147t-115.5 -396q0 -253 112 -402t303 -149q177 0 310 149l96 -104q-168 -195 -410 -195q-127 0 -234.5 48t-186 136t-123 220t-44.5 293zM399 1675h136 l137 -139h8l137 139h137l-196 -229h-162z" />
<glyph unicode="&#x10d;" horiz-adv-x="933" d="M94 496q0 122 38.5 222.5t105 165.5t152.5 100.5t183 35.5q163 0 291 -119l-84 -108q-102 88 -200 88q-136 0 -224 -107t-88 -278q0 -170 85 -275.5t222 -105.5q123 0 234 100l76 -111q-145 -129 -324 -129q-204 0 -335.5 140t-131.5 381zM307 1462h123l137 -188h8 l138 188h121l-195 -288h-137z" />
<glyph unicode="&#x10e;" horiz-adv-x="1259" d="M184 0v1343h336q309 0 472 -172t163 -493q0 -323 -162 -500.5t-465 -177.5h-344zM352 1675h137l138 -139h8l137 139h137l-196 -229h-164zM354 139h154q232 0 351.5 140.5t119.5 398.5q0 256 -119 391t-352 135h-154v-1065z" />
<glyph unicode="&#x10f;" horiz-adv-x="1136" d="M96 496q0 118 35.5 218t95.5 166t138 103t163 37q81 0 144 -28t135 -87l-8 170v383h170v-1458h-140l-14 117h-6q-146 -142 -301 -142q-190 0 -301 137.5t-111 383.5zM270 498q0 -179 72.5 -280t202.5 -101q132 0 254 137v520q-116 105 -242 105q-122 0 -204.5 -106.5 t-82.5 -274.5zM1030 1120l35 338h137l-82 -338h-90z" />
<glyph unicode="&#x110;" horiz-adv-x="1306" d="M68 657v88l161 9v589h336q309 0 472 -172t163 -493q0 -323 -162 -500.5t-465 -177.5h-344v657h-161zM399 139h154q232 0 351.5 140.5t119.5 398.5q0 256 -119 391t-352 135h-154v-450h306v-97h-306v-518z" />
<glyph unicode="&#x111;" horiz-adv-x="1136" d="M96 475q0 113 35.5 209t95.5 159.5t138 99.5t163 36q81 0 144 -28t135 -87l-8 170v135h-330v99h330v190h170v-190h147v-88l-147 -11v-1169h-144l-12 113h-6q-138 -138 -299 -138q-190 0 -301 132t-111 368zM270 477q0 -170 72.5 -265t202.5 -95q132 0 254 137v479 q-116 105 -242 105q-122 0 -204.5 -101t-82.5 -260z" />
<glyph unicode="&#x112;" horiz-adv-x="1079" d="M184 0v1343h774v-143h-604v-422h510v-145h-510v-488h625v-145h-795zM328 1493v117h508v-117h-508z" />
<glyph unicode="&#x113;" horiz-adv-x="1015" d="M94 496q0 118 38 218.5t100.5 166.5t142.5 102.5t166 36.5q188 0 292.5 -125.5t104.5 -341.5q0 -55 -6 -92h-672q9 -161 99 -255.5t233 -94.5q127 0 248 77l59 -110q-161 -103 -328 -103q-205 0 -341 141.5t-136 379.5zM258 571h533q0 152 -64.5 234t-181.5 82 q-109 0 -190.5 -85t-96.5 -231zM291 1231v117h502v-117h-502z" />
<glyph unicode="&#x114;" horiz-adv-x="1079" d="M184 0v1343h774v-143h-604v-422h510v-145h-510v-488h625v-145h-795zM330 1675h104q10 -55 47 -92t101 -37t101.5 37t47.5 92h103q-10 -95 -73.5 -160t-178.5 -65t-177.5 64.5t-74.5 160.5z" />
<glyph unicode="&#x115;" horiz-adv-x="1015" d="M94 496q0 118 38 218.5t100.5 166.5t142.5 102.5t166 36.5q188 0 292.5 -125.5t104.5 -341.5q0 -55 -6 -92h-672q9 -161 99 -255.5t233 -94.5q127 0 248 77l59 -110q-161 -103 -328 -103q-205 0 -341 141.5t-136 379.5zM258 571h533q0 152 -64.5 234t-181.5 82 q-109 0 -190.5 -85t-96.5 -231zM283 1438h104q8 -66 48 -111t106 -45q67 0 106 44.5t49 111.5h105q-4 -48 -20.5 -92t-46.5 -83t-80 -62t-113 -23q-62 0 -111.5 23t-79.5 62t-46.5 83t-20.5 92z" />
<glyph unicode="&#x116;" horiz-adv-x="1079" d="M184 0v1343h774v-143h-604v-422h510v-145h-510v-488h625v-145h-795zM465 1573q0 47 33.5 77.5t83.5 30.5t83 -30.5t33 -77.5q0 -49 -33 -80t-83 -31t-83.5 31t-33.5 80z" />
<glyph unicode="&#x117;" horiz-adv-x="1015" d="M94 496q0 118 38 218.5t100.5 166.5t142.5 102.5t166 36.5q188 0 292.5 -125.5t104.5 -341.5q0 -55 -6 -92h-672q9 -161 99 -255.5t233 -94.5q127 0 248 77l59 -110q-161 -103 -328 -103q-205 0 -341 141.5t-136 379.5zM258 571h533q0 152 -64.5 234t-181.5 82 q-109 0 -190.5 -85t-96.5 -231zM430 1311q0 47 32 78.5t79 31.5q49 0 79.5 -31t30.5 -79q0 -50 -30.5 -80.5t-79.5 -30.5q-48 0 -79.5 31t-31.5 80z" />
<glyph unicode="&#x118;" horiz-adv-x="1079" d="M184 0v1343h774v-143h-604v-422h510v-145h-510v-488h625v-145h-6q-73 -9 -131 -74t-58 -145q0 -45 29.5 -69.5t69.5 -24.5q43 0 82 28l47 -92q-30 -24 -77.5 -40.5t-86.5 -16.5q-86 0 -141.5 46.5t-55.5 131.5q0 79 45 147t109 109h-621z" />
<glyph unicode="&#x119;" horiz-adv-x="1015" d="M94 496q0 118 38 218.5t100.5 166.5t142.5 102.5t166 36.5q188 0 292.5 -125.5t104.5 -341.5q0 -55 -6 -92h-672q9 -161 99 -255.5t233 -94.5q127 0 248 77l59 -110q-128 -91 -177.5 -158t-49.5 -135q0 -45 27.5 -69.5t68.5 -24.5t82 26l43 -84q-29 -23 -75.5 -39 t-84.5 -16q-81 0 -132.5 45.5t-51.5 128.5q0 69 37 132t86 106q-44 -15 -101 -15q-205 0 -341 141.5t-136 379.5zM258 571h533q0 152 -63.5 234t-182.5 82q-109 0 -190.5 -85t-96.5 -231z" />
<glyph unicode="&#x11a;" horiz-adv-x="1079" d="M184 0v1343h774v-143h-604v-422h510v-145h-510v-488h625v-145h-795zM305 1675h135l138 -139h8l137 139h137l-196 -229h-162z" />
<glyph unicode="&#x11b;" horiz-adv-x="1015" d="M94 496q0 118 38 218.5t100.5 166.5t142.5 102.5t166 36.5q188 0 292.5 -125.5t104.5 -341.5q0 -55 -6 -92h-672q9 -161 99 -255.5t233 -94.5q127 0 248 77l59 -110q-161 -103 -328 -103q-205 0 -341 141.5t-136 379.5zM258 571h533q0 152 -64.5 234t-181.5 82 q-109 0 -190.5 -85t-96.5 -231zM279 1462h120l138 -188h8l137 188h123l-195 -288h-137z" />
<glyph unicode="&#x11c;" horiz-adv-x="1263" d="M106 672q0 159 46.5 290.5t128.5 220t196 137t248 48.5q227 0 385 -166l-96 -108q-118 125 -287 125q-203 0 -323.5 -146.5t-120.5 -396.5q0 -257 116.5 -404t329.5 -147q72 0 137 21.5t105 58.5v350h-285v141h440v-565q-69 -71 -177 -113.5t-238 -42.5q-176 0 -312.5 82 t-214.5 241t-78 374zM446 1446l197 229h162l196 -229h-135l-137 139h-8l-137 -139h-138z" />
<glyph unicode="&#x11d;" horiz-adv-x="1032" d="M92 -190q0 62 38.5 120t107.5 105v8q-88 56 -88 162q0 58 31.5 105.5t76.5 78.5v8q-55 44 -92 115t-37 154q0 158 109 256t266 98q75 0 141 -25h346v-129h-205q37 -35 59.5 -89t22.5 -115q0 -156 -104 -251.5t-260 -95.5q-82 0 -150 35q-63 -56 -63 -119q0 -108 176 -108 h192q176 0 262.5 -57.5t86.5 -180.5q0 -143 -139.5 -243.5t-364.5 -100.5q-187 0 -299.5 71t-112.5 198zM227 1174l195 288h137l195 -288h-121l-137 186h-9l-137 -186h-123zM240 -168q0 -80 77 -127t211 -47q138 0 227 61t89 142q0 67 -50 95t-151 28h-172q-72 0 -129 16 q-102 -72 -102 -168zM293 666q0 -106 61 -172t150 -66t150 66t61 172t-60 168.5t-151 62.5t-151 -62.5t-60 -168.5z" />
<glyph unicode="&#x11e;" horiz-adv-x="1263" d="M106 672q0 159 46.5 290.5t128.5 220t196 137t248 48.5q227 0 385 -166l-96 -108q-118 125 -287 125q-203 0 -323.5 -146.5t-120.5 -396.5q0 -257 116.5 -404t329.5 -147q72 0 137 21.5t105 58.5v350h-285v141h440v-565q-69 -71 -177 -113.5t-238 -42.5q-176 0 -312.5 82 t-214.5 241t-78 374zM473 1675h102q10 -55 48 -92t102 -37t100.5 37t46.5 92h105q-12 -96 -74.5 -160.5t-177.5 -64.5t-178.5 65t-73.5 160z" />
<glyph unicode="&#x11f;" horiz-adv-x="1032" d="M92 -190q0 62 38.5 120t107.5 105v8q-88 56 -88 162q0 58 31.5 105.5t76.5 78.5v8q-55 44 -92 115t-37 154q0 158 109 256t266 98q75 0 141 -25h346v-129h-205q37 -35 59.5 -89t22.5 -115q0 -156 -104 -251.5t-260 -95.5q-82 0 -150 35q-63 -56 -63 -119q0 -108 176 -108 h192q176 0 262.5 -57.5t86.5 -180.5q0 -143 -139.5 -243.5t-364.5 -100.5q-187 0 -299.5 71t-112.5 198zM231 1438h105q10 -66 49.5 -111t106.5 -45q66 0 105.5 45t47.5 111h105q-4 -48 -20.5 -92t-46.5 -83t-79.5 -62t-111.5 -23q-63 0 -113 23t-80 62t-47 83t-21 92z M240 -168q0 -80 77 -127t211 -47q138 0 227 61t89 142q0 67 -50 95t-151 28h-172q-72 0 -129 16q-102 -72 -102 -168zM293 666q0 -106 61 -172t150 -66t150 66t61 172t-60 168.5t-151 62.5t-151 -62.5t-60 -168.5z" />
<glyph unicode="&#x120;" horiz-adv-x="1263" d="M106 672q0 159 46.5 290.5t128.5 220t196 137t248 48.5q227 0 385 -166l-96 -108q-118 125 -287 125q-203 0 -323.5 -146.5t-120.5 -396.5q0 -257 116.5 -404t329.5 -147q72 0 137 21.5t105 58.5v350h-285v141h440v-565q-69 -71 -177 -113.5t-238 -42.5q-176 0 -312.5 82 t-214.5 241t-78 374zM608 1573q0 47 33.5 77.5t83.5 30.5t82.5 -30.5t32.5 -77.5q0 -49 -32.5 -80t-82.5 -31t-83.5 31t-33.5 80z" />
<glyph unicode="&#x121;" horiz-adv-x="1032" d="M92 -190q0 62 38.5 120t107.5 105v8q-88 56 -88 162q0 58 31.5 105.5t76.5 78.5v8q-55 44 -92 115t-37 154q0 158 109 256t266 98q75 0 141 -25h346v-129h-205q37 -35 59.5 -89t22.5 -115q0 -156 -104 -251.5t-260 -95.5q-82 0 -150 35q-63 -56 -63 -119q0 -108 176 -108 h192q176 0 262.5 -57.5t86.5 -180.5q0 -143 -139.5 -243.5t-364.5 -100.5q-187 0 -299.5 71t-112.5 198zM240 -168q0 -80 77 -127t211 -47q138 0 227 61t89 142q0 67 -50 95t-151 28h-172q-72 0 -129 16q-102 -72 -102 -168zM293 666q0 -106 61 -172t150 -66t150 66t61 172 t-60 168.5t-151 62.5t-151 -62.5t-60 -168.5zM379 1311q0 47 32 78.5t81 31.5q47 0 78.5 -31.5t31.5 -78.5q0 -49 -31 -80t-79 -31q-50 0 -81.5 31t-31.5 80z" />
<glyph unicode="&#x122;" horiz-adv-x="1263" d="M106 672q0 159 46.5 290.5t128.5 220t196 137t248 48.5q227 0 385 -166l-96 -108q-118 125 -287 125q-203 0 -323.5 -146.5t-120.5 -396.5q0 -257 116.5 -404t329.5 -147q72 0 137 21.5t105 58.5v350h-285v141h440v-565q-69 -71 -177 -113.5t-238 -42.5q-176 0 -312.5 82 t-214.5 241t-78 374zM541 -360q182 24 182 94q0 65 -107 90l37 78q105 -15 152 -52t47 -106q0 -57 -43 -98t-106.5 -61.5t-145.5 -26.5z" />
<glyph unicode="&#x123;" horiz-adv-x="1032" d="M92 -190q0 62 38.5 120t107.5 105v8q-88 56 -88 162q0 58 31.5 105.5t76.5 78.5v8q-55 44 -92 115t-37 154q0 158 109 256t266 98q75 0 141 -25h346v-129h-205q37 -35 59.5 -89t22.5 -115q0 -156 -104 -251.5t-260 -95.5q-82 0 -150 35q-63 -56 -63 -119q0 -108 176 -108 h192q176 0 262.5 -57.5t86.5 -180.5q0 -143 -139.5 -243.5t-364.5 -100.5q-187 0 -299.5 71t-112.5 198zM240 -168q0 -80 77 -127t211 -47q138 0 227 61t89 142q0 67 -50 95t-151 28h-172q-72 0 -129 16q-102 -72 -102 -168zM293 666q0 -106 61 -172t150 -66t150 66t61 172 t-60 168.5t-151 62.5t-151 -62.5t-60 -168.5zM348 1266q0 83 84 129.5t213 58.5l17 -84q-183 -24 -183 -92q0 -67 107 -92l-39 -78q-103 15 -151 53t-48 105z" />
<glyph unicode="&#x124;" horiz-adv-x="1335" d="M184 0v1343h170v-563h625v563h172v-1343h-172v633h-625v-633h-170zM389 1446l197 229h162l196 -229h-137l-137 139h-8l-136 -139h-137z" />
<glyph unicode="&#x125;" horiz-adv-x="1114" d="M-25 1534l197 227h162l196 -227h-135l-137 139h-8l-137 -139h-138zM168 0v1458h168v-397l-6 -205q82 78 160 121t172 43q303 0 303 -389v-631h-168v608q0 139 -45.5 202.5t-143.5 63.5q-72 0 -131 -35.5t-141 -117.5v-721h-168z" />
<glyph unicode="&#x126;" horiz-adv-x="1406" d="M66 1008v86l159 10v239h170v-239h625v239h172v-239h147v-96h-147v-1008h-172v633h-625v-633h-170v1008h-159zM395 780h625v228h-625v-228z" />
<glyph unicode="&#x127;" horiz-adv-x="1114" d="M16 1169v88l152 11v190h168v-190h373v-99h-373v-149l-6 -205q82 78 160 121t172 43q303 0 303 -389v-590h-168v567q0 139 -45.5 203t-143.5 64q-72 0 -131 -36t-141 -118v-680h-168v1169h-152z" />
<glyph unicode="&#x128;" horiz-adv-x="538" d="M-27 1456q9 98 55.5 159.5t116.5 61.5q46 0 91 -26.5t83.5 -53t69.5 -26.5t53 27.5t31 78.5h92q-9 -97 -55.5 -159t-116.5 -62q-46 0 -91 27t-83 53.5t-69 26.5t-53 -27.5t-31 -79.5h-93zM184 0v1343h170v-1343h-170z" />
<glyph unicode="&#x129;" horiz-adv-x="503" d="M-33 1186q8 97 51 157t115 60q35 0 71 -16.5t60.5 -36t52.5 -36t50 -16.5q57 0 75 105h95q-8 -97 -51 -157t-115 -60q-34 0 -69.5 16t-59.5 36t-53 36t-52 16q-59 0 -74 -104h-96zM168 0v995h168v-995h-168z" />
<glyph unicode="&#x12a;" horiz-adv-x="538" d="M14 1493v117h508v-117h-508zM184 0v1343h170v-1343h-170z" />
<glyph unicode="&#x12b;" horiz-adv-x="503" d="M2 1231v117h502v-117h-502zM168 0v995h168v-995h-168z" />
<glyph unicode="&#x12c;" horiz-adv-x="538" d="M16 1675h105q10 -55 46.5 -92t100.5 -37q66 0 103 37t47 92h102q-10 -95 -73.5 -160t-178.5 -65q-114 0 -177 65t-75 160zM184 0v1343h170v-1343h-170z" />
<glyph unicode="&#x12d;" horiz-adv-x="503" d="M-6 1438h104q10 -66 49.5 -111t106.5 -45t106.5 45t47.5 111h104q-3 -48 -19.5 -92t-46 -83t-79.5 -62t-113 -23t-113 23t-80 62t-46.5 83t-20.5 92zM168 0v995h168v-995h-168z" />
<glyph unicode="&#x12e;" horiz-adv-x="538" d="M88 -256q0 134 137 256h-41v1343h170v-1343q-133 -104 -133 -219q0 -44 28.5 -69t67.5 -25q45 0 84 28l48 -92q-31 -24 -78 -40.5t-86 -16.5q-86 0 -141.5 46.5t-55.5 131.5z" />
<glyph unicode="&#x12f;" horiz-adv-x="503" d="M78 -248q0 51 23 102t47 80t61 66h-41v995h168v-995q-133 -96 -133 -215q0 -45 27.5 -69.5t68.5 -24.5q38 0 82 26l43 -84q-29 -23 -75.5 -39t-84.5 -16q-82 0 -134 45.5t-52 128.5zM135 1309q0 49 33.5 78.5t83.5 29.5q49 0 82 -30t33 -78q0 -47 -33.5 -78t-81.5 -31 q-50 0 -83.5 31t-33.5 78z" />
<glyph unicode="&#x130;" horiz-adv-x="538" d="M154 1573q0 47 32 77.5t82 30.5t83.5 -30.5t33.5 -77.5q0 -49 -33.5 -80t-83.5 -31t-82 31t-32 80zM184 0v1343h170v-1343h-170z" />
<glyph unicode="&#x131;" horiz-adv-x="503" d="M168 0v995h168v-995h-168z" />
<glyph unicode="&#x134;" horiz-adv-x="983" d="M63 190l123 86q84 -151 232 -151q109 0 162 68t53 219v931h172v-948q0 -71 -13 -132.5t-42 -115t-72 -91.5t-105 -59.5t-139 -21.5q-252 0 -371 215zM434 1446l197 229h162l196 -229h-135l-137 139h-8l-138 -139h-137z" />
<glyph unicode="&#x135;" horiz-adv-x="505" d="M-82 -418l35 127q50 -16 94 -16q70 0 96.5 48t26.5 146v1108h168v-1108q0 -160 -64.5 -245.5t-207.5 -85.5q-83 0 -148 26zM-10 1174l194 288h140l192 -288h-121l-137 186h-8l-137 -186h-123z" />
<glyph unicode="&#x136;" horiz-adv-x="1185" d="M184 0v1343h170v-673h6l560 673h192l-420 -512l486 -831h-191l-401 698l-232 -272v-426h-170zM494 -360q182 24 182 94q0 64 -105 90l37 78q104 -15 151.5 -52.5t47.5 -105.5q0 -57 -43 -98t-107 -61.5t-147 -26.5z" />
<glyph unicode="&#x137;" horiz-adv-x="1013" d="M168 0v1458h166v-987h6l424 524h186l-334 -399l379 -596h-184l-291 479l-186 -217v-262h-166zM381 -360q182 23 182 94q0 37 -27 57.5t-77 32.5l37 78q105 -15 151.5 -52t46.5 -106q0 -57 -43 -98t-106.5 -61.5t-145.5 -26.5z" />
<glyph unicode="&#x138;" horiz-adv-x="1013" d="M168 0v995h168v-528h6l422 528h186l-329 -399l374 -596h-184l-291 473l-184 -217v-256h-168z" />
<glyph unicode="&#x139;" horiz-adv-x="995" d="M170 1446l180 229h193l-232 -229h-141zM184 0v1343h170v-1198h588v-145h-758z" />
<glyph unicode="&#x13a;" horiz-adv-x="522" d="M139 1554l180 228h193l-231 -228h-142zM168 201v1257h168v-1270q0 -37 13 -55t34 -18q19 0 37 4l22 -127q-39 -17 -96 -17q-93 0 -135.5 57t-42.5 169z" />
<glyph unicode="&#x13b;" horiz-adv-x="995" d="M184 0v1343h170v-1198h588v-145h-758zM416 -360q182 24 182 94q0 37 -27.5 57.5t-76.5 32.5l36 78q104 -15 151.5 -52.5t47.5 -105.5q0 -57 -43 -98t-107 -61.5t-147 -26.5z" />
<glyph unicode="&#x13c;" horiz-adv-x="522" d="M168 201v1257h168v-1270q0 -37 13 -55t34 -18q19 0 37 4l22 -127q-39 -17 -96 -17q-93 0 -135.5 57t-42.5 169zM174 -360q182 23 182 94q0 37 -27 57.5t-77 32.5l37 78q105 -15 151.5 -52t46.5 -106q0 -57 -42.5 -98t-106 -61.5t-145.5 -26.5z" />
<glyph unicode="&#x13d;" horiz-adv-x="995" d="M184 0v1343h170v-1198h588v-145h-758zM457 1120l35 338h137l-82 -338h-90z" />
<glyph unicode="&#x13e;" horiz-adv-x="522" d="M168 201v1257h168v-1270q0 -37 13 -55t34 -18q19 0 37 4l22 -127q-39 -17 -96 -17q-93 0 -135.5 57t-42.5 169zM397 1120l35 338h137l-82 -338h-90z" />
<glyph unicode="&#x13f;" horiz-adv-x="995" d="M184 0v1343h170v-1198h588v-145h-758zM649 666q0 57 35.5 93t87.5 36t86.5 -35.5t34.5 -93.5q0 -56 -34.5 -91.5t-86.5 -35.5t-87.5 35.5t-35.5 91.5z" />
<glyph unicode="&#x140;" horiz-adv-x="741" d="M168 201v1257h168v-1270q0 -37 13 -55t34 -18q19 0 37 4l22 -127q-39 -17 -96 -17q-93 0 -135.5 57t-42.5 169zM500 666q0 57 35 93t86 36q52 0 87 -36t35 -93q0 -56 -35 -91.5t-87 -35.5q-51 0 -86 35.5t-35 91.5z" />
<glyph unicode="&#x141;" horiz-adv-x="1001" d="M27 397v138l168 96v712h172v-636l378 204v-139l-378 -203v-424h585v-145h-757v492z" />
<glyph unicode="&#x142;" horiz-adv-x="536" d="M47 596v143l129 82v637h170v-549l143 92v-143l-143 -92v-578q0 -37 13 -55t34 -18q17 0 37 4l23 -127q-43 -17 -99 -17q-178 0 -178 226v477z" />
<glyph unicode="&#x143;" horiz-adv-x="1325" d="M184 0v1343h176l486 -843l145 -279h8q-20 337 -20 428v694h162v-1343h-176l-488 846l-145 276h-8q22 -297 22 -420v-702h-162zM563 1446l180 229h195l-233 -229h-142z" />
<glyph unicode="&#x144;" horiz-adv-x="1120" d="M168 0v995h139l15 -143h6q80 80 159.5 124t174.5 44q303 0 303 -389v-631h-168v608q0 139 -45.5 202.5t-143.5 63.5q-72 0 -131 -35.5t-141 -117.5v-721h-168zM465 1174l184 288h176l-231 -288h-129z" />
<glyph unicode="&#x145;" horiz-adv-x="1325" d="M184 0v1343h176l486 -843l145 -279h8q-20 337 -20 428v694h162v-1343h-176l-488 846l-145 276h-8q22 -297 22 -420v-702h-162zM498 -360q182 24 182 94q0 64 -105 90l37 78q104 -15 151.5 -52.5t47.5 -105.5q0 -57 -43 -98t-107 -61.5t-147 -26.5z" />
<glyph unicode="&#x146;" horiz-adv-x="1120" d="M168 0v995h139l15 -143h6q80 80 159.5 124t174.5 44q303 0 303 -389v-631h-168v608q0 139 -45.5 202.5t-143.5 63.5q-72 0 -131 -35.5t-141 -117.5v-721h-168zM397 -360q183 24 183 94q0 64 -105 90l37 78q104 -15 151.5 -52.5t47.5 -105.5q0 -57 -43 -98t-107 -61.5 t-147 -26.5z" />
<glyph unicode="&#x147;" horiz-adv-x="1325" d="M184 0v1343h176l486 -843l145 -279h8q-20 337 -20 428v694h162v-1343h-176l-488 846l-145 276h-8q22 -297 22 -420v-702h-162zM391 1675h137l138 -139h8l135 139h137l-196 -229h-162z" />
<glyph unicode="&#x148;" horiz-adv-x="1120" d="M168 0v995h139l15 -143h6q80 80 159.5 124t174.5 44q303 0 303 -389v-631h-168v608q0 139 -45.5 202.5t-143.5 63.5q-72 0 -131 -35.5t-141 -117.5v-721h-168zM334 1462h123l137 -188h8l137 188h121l-192 -288h-140z" />
<glyph unicode="&#x149;" horiz-adv-x="1587" d="M129 961q80 53 117 111.5t37 144.5q-9 -3 -17 -3q-45 0 -76.5 27.5t-31.5 75.5q0 53 30 84t78 31q60 0 94.5 -49t34.5 -138q0 -235 -219 -362zM623 0v995h139l14 -143h6q80 80 159.5 124t174.5 44q303 0 303 -389v-631h-168v608q0 140 -44.5 203t-143.5 63 q-71 0 -131 -36t-139 -117v-721h-170z" />
<glyph unicode="&#x14c;" horiz-adv-x="1359" d="M106 678q0 318 158.5 504t415.5 186t416 -186.5t159 -503.5q0 -321 -159.5 -512t-415.5 -191t-415 191t-159 512zM283 678q0 -252 108.5 -402.5t288.5 -150.5t288.5 150.5t108.5 402.5q0 249 -108 395t-289 146t-289 -146t-108 -395zM426 1493v117h508v-117h-508z" />
<glyph unicode="&#x14d;" horiz-adv-x="1110" d="M94 496q0 122 37.5 222.5t101.5 165.5t147 100.5t175 35.5t175 -35.5t147 -100.5t101.5 -165.5t37.5 -222.5q0 -120 -37.5 -220t-101.5 -165t-147 -100.5t-175 -35.5t-175 35.5t-147 100.5t-101.5 165t-37.5 220zM268 496q0 -170 79.5 -275.5t207.5 -105.5 q129 0 208 105.5t79 275.5q0 172 -79 278.5t-208 106.5q-128 0 -207.5 -106.5t-79.5 -278.5zM305 1231v117h502v-117h-502z" />
<glyph unicode="&#x14e;" horiz-adv-x="1359" d="M106 678q0 318 158.5 504t415.5 186t416 -186.5t159 -503.5q0 -321 -159.5 -512t-415.5 -191t-415 191t-159 512zM283 678q0 -252 108.5 -402.5t288.5 -150.5t288.5 150.5t108.5 402.5q0 249 -108 395t-289 146t-289 -146t-108 -395zM428 1675h102q10 -55 48 -92t102 -37 t101.5 37t47.5 92h103q-12 -96 -74.5 -160.5t-177.5 -64.5t-177.5 64.5t-74.5 160.5z" />
<glyph unicode="&#x14f;" horiz-adv-x="1110" d="M94 496q0 122 37.5 222.5t101.5 165.5t147 100.5t175 35.5t175 -35.5t147 -100.5t101.5 -165.5t37.5 -222.5q0 -120 -37.5 -220t-101.5 -165t-147 -100.5t-175 -35.5t-175 35.5t-147 100.5t-101.5 165t-37.5 220zM268 496q0 -170 79.5 -275.5t207.5 -105.5 q129 0 208 105.5t79 275.5q0 172 -79 278.5t-208 106.5q-128 0 -207.5 -106.5t-79.5 -278.5zM297 1438h104q8 -66 47.5 -111t106.5 -45t106.5 45t47.5 111h104q-3 -48 -19.5 -92t-46 -83t-79.5 -62t-113 -23t-113 23t-79.5 62t-46 83t-19.5 92z" />
<glyph unicode="&#x150;" horiz-adv-x="1359" d="M106 678q0 318 158.5 504t415.5 186t416 -186.5t159 -503.5q0 -321 -159.5 -512t-415.5 -191t-415 191t-159 512zM283 678q0 -252 108.5 -402.5t288.5 -150.5t288.5 150.5t108.5 402.5q0 249 -108 395t-289 146t-289 -146t-108 -395zM457 1446l135 229h158l-170 -229 h-123zM780 1446l135 229h158l-170 -229h-123z" />
<glyph unicode="&#x151;" horiz-adv-x="1110" d="M94 496q0 122 37.5 222.5t101.5 165.5t147 100.5t175 35.5t175 -35.5t147 -100.5t101.5 -165.5t37.5 -222.5q0 -120 -37.5 -220t-101.5 -165t-147 -100.5t-175 -35.5t-175 35.5t-147 100.5t-101.5 165t-37.5 220zM268 496q0 -170 79.5 -275.5t207.5 -105.5 q129 0 208 105.5t79 275.5q0 172 -79 278.5t-208 106.5q-128 0 -207.5 -106.5t-79.5 -278.5zM354 1169l146 293h147l-180 -293h-113zM655 1169l146 293h147l-180 -293h-113z" />
<glyph unicode="&#x152;" horiz-adv-x="1734" d="M106 678q0 318 172.5 491.5t485.5 173.5h850v-143h-570v-422h476v-145h-476v-488h590v-145h-878q-306 0 -478 178.5t-172 499.5zM283 678q0 -259 126 -399t367 -140h98v1065h-98q-242 0 -367.5 -135t-125.5 -391z" />
<glyph unicode="&#x153;" horiz-adv-x="1718" d="M94 496q0 122 36.5 222.5t98.5 165.5t143.5 100.5t172.5 35.5q116 0 211.5 -65t148.5 -185q57 118 149.5 184t200.5 66q182 0 283.5 -126.5t101.5 -342.5q0 -57 -6 -94h-653q6 -153 95 -248.5t218 -95.5q117 0 246 82l62 -117q-161 -103 -328 -103q-116 0 -213 66 t-154 182q-118 -248 -366 -248q-90 0 -171 35.5t-142.5 100.5t-97.5 165t-36 220zM266 496q0 -170 78 -275.5t201 -105.5t200.5 105.5t77.5 275.5q0 171 -77.5 278t-200.5 107t-201 -107t-78 -278zM981 569h512q0 153 -63.5 235.5t-178.5 82.5q-105 0 -181 -87t-89 -231z " />
<glyph unicode="&#x154;" horiz-adv-x="1189" d="M184 0v1343h420q471 0 471 -376q0 -153 -80 -249.5t-221 -131.5l340 -586h-192l-324 567h-244v-567h-170zM354 707h226q158 0 241.5 65.5t83.5 194.5q0 128 -81 183.5t-244 55.5h-226v-499zM498 1446l180 229h192l-231 -229h-141z" />
<glyph unicode="&#x155;" horiz-adv-x="710" d="M168 0v995h139l15 -180h6q52 96 125.5 150.5t156.5 54.5q58 0 107 -21l-33 -147q-53 16 -96 16q-69 0 -136.5 -55.5t-115.5 -173.5v-639h-168zM311 1174l187 288h174l-230 -288h-131z" />
<glyph unicode="&#x156;" horiz-adv-x="1189" d="M184 0v1343h420q471 0 471 -376q0 -153 -80 -249.5t-221 -131.5l340 -586h-192l-324 567h-244v-567h-170zM354 707h226q158 0 241.5 65.5t83.5 194.5q0 128 -81 183.5t-244 55.5h-226v-499zM461 -360q180 24 180 94q0 37 -27 57.5t-77 32.5l36 78q105 -15 152 -52 t47 -106q0 -57 -43 -98t-106.5 -61.5t-145.5 -26.5z" />
<glyph unicode="&#x157;" horiz-adv-x="710" d="M76 -360q180 24 180 94q0 37 -27 57.5t-77 32.5l36 78q105 -15 152 -52t47 -106q0 -57 -43 -98t-106.5 -61.5t-145.5 -26.5zM168 0v995h139l15 -180h6q52 96 125.5 150.5t156.5 54.5q58 0 107 -21l-33 -147q-53 16 -96 16q-69 0 -136.5 -55.5t-115.5 -173.5v-639h-168z " />
<glyph unicode="&#x158;" horiz-adv-x="1189" d="M184 0v1343h420q471 0 471 -376q0 -153 -80 -249.5t-221 -131.5l340 -586h-192l-324 567h-244v-567h-170zM324 1675h137l137 -139h8l137 139h138l-197 -229h-164zM354 707h226q158 0 241.5 65.5t83.5 194.5q0 128 -81 183.5t-244 55.5h-226v-499z" />
<glyph unicode="&#x159;" horiz-adv-x="710" d="M168 0v995h139l15 -180h6q52 96 125.5 150.5t156.5 54.5q58 0 107 -21l-33 -147q-53 16 -96 16q-69 0 -136.5 -55.5t-115.5 -173.5v-639h-168zM182 1462h123l137 -188h9l137 188h121l-195 -288h-137z" />
<glyph unicode="&#x15a;" horiz-adv-x="1093" d="M86 174l102 119q74 -77 171.5 -122.5t199.5 -45.5q131 0 206 60t75 159q0 40 -12.5 72.5t-28.5 53.5t-50.5 43.5t-59 34.5t-73.5 34l-192 84q-272 114 -272 346q0 154 119 255t302 101q116 0 219.5 -45t178.5 -121l-92 -110q-134 127 -306 127q-113 0 -181 -53.5 t-68 -143.5q0 -37 14.5 -69t32 -52t53.5 -41.5t58 -32t65 -28.5l190 -82q64 -28 110 -57.5t86 -72t60.5 -100t20.5 -129.5q0 -164 -125 -273.5t-332 -109.5q-138 0 -259.5 53t-211.5 146zM467 1446l180 229h193l-232 -229h-141z" />
<glyph unicode="&#x15b;" horiz-adv-x="858" d="M57 113l84 112q71 -58 140.5 -88.5t152.5 -30.5q94 0 145.5 44t51.5 112q0 29 -14.5 55t-33 43.5t-54 36t-59.5 28.5t-67 26q-51 18 -86 33t-78.5 41t-69.5 53.5t-44.5 69t-18.5 89.5q0 123 92.5 203t250.5 80q168 0 309 -113l-80 -106q-117 88 -227 88q-89 0 -136 -41.5 t-47 -102.5q0 -32 16 -57.5t45.5 -43.5t63.5 -33t76 -31q4 -1 5.5 -1.5l4.5 -1.5t5.5 -2t4.5 -2q41 -15 62.5 -23.5t59 -26t59 -32t48.5 -38.5t41 -49t24 -59t10 -73q0 -127 -97 -212t-268 -85q-101 0 -199 38t-172 100zM317 1174l185 288h176l-232 -288h-129z" />
<glyph unicode="&#x15c;" horiz-adv-x="1093" d="M86 174l102 119q74 -77 171.5 -122.5t199.5 -45.5q131 0 206 60t75 159q0 40 -12.5 72.5t-28.5 53.5t-50.5 43.5t-59 34.5t-73.5 34l-192 84q-272 114 -272 346q0 154 119 255t302 101q116 0 219.5 -45t178.5 -121l-92 -110q-134 127 -306 127q-113 0 -181 -53.5 t-68 -143.5q0 -37 14.5 -69t32 -52t53.5 -41.5t58 -32t65 -28.5l190 -82q64 -28 110 -57.5t86 -72t60.5 -100t20.5 -129.5q0 -164 -125 -273.5t-332 -109.5q-138 0 -259.5 53t-211.5 146zM293 1446l196 229h164l197 -229h-137l-138 139h-8l-137 -139h-137z" />
<glyph unicode="&#x15d;" horiz-adv-x="858" d="M57 113l84 112q71 -58 140.5 -88.5t152.5 -30.5q94 0 145.5 44t51.5 112q0 29 -14.5 55t-33 43.5t-54 36t-59.5 28.5t-67 26q-51 18 -86 33t-78.5 41t-69.5 53.5t-44.5 69t-18.5 89.5q0 123 92.5 203t250.5 80q168 0 309 -113l-80 -106q-117 88 -227 88q-89 0 -136 -41.5 t-47 -102.5q0 -32 16 -57.5t45.5 -43.5t63.5 -33t76 -31q4 -1 5.5 -1.5l4.5 -1.5t5.5 -2t4.5 -2q41 -15 62.5 -23.5t59 -26t59 -32t48.5 -38.5t41 -49t24 -59t10 -73q0 -127 -97 -212t-268 -85q-101 0 -199 38t-172 100zM186 1174l195 288h139l193 -288h-121l-137 186h-9 l-137 -186h-123z" />
<glyph unicode="&#x15e;" horiz-adv-x="1093" d="M86 174l102 119q74 -77 171.5 -122.5t199.5 -45.5q131 0 206 60t75 159q0 40 -12.5 72.5t-28.5 53.5t-50.5 43.5t-59 34.5t-73.5 34l-192 84q-272 114 -272 346q0 154 119 255t302 101q116 0 219.5 -45t178.5 -121l-92 -110q-134 127 -306 127q-113 0 -181 -53.5 t-68 -143.5q0 -37 14.5 -69t32 -52t53.5 -41.5t58 -32t65 -28.5l190 -82q64 -28 110 -57.5t86 -72t60.5 -100t20.5 -129.5q0 -152 -108 -258t-292 -123l-39 -79q123 -42 123 -146q0 -83 -84.5 -129.5t-212.5 -58.5l-16 84q182 24 182 98q0 38 -32.5 61t-98.5 39l68 131 q-244 18 -418 197z" />
<glyph unicode="&#x15f;" horiz-adv-x="858" d="M57 113l84 112q71 -58 140.5 -88.5t152.5 -30.5q94 0 145.5 44t51.5 112q0 29 -14.5 55t-33 43.5t-54 36t-59.5 28.5t-67 26q-51 18 -86 33t-78.5 41t-69.5 53.5t-44.5 69t-18.5 89.5q0 123 92.5 203t250.5 80q168 0 309 -113l-80 -106q-117 88 -227 88q-89 0 -136 -41.5 t-47 -102.5q0 -32 16 -57.5t45.5 -43.5t63.5 -33t76 -31q4 -1 5.5 -1.5l4.5 -1.5t5.5 -2t4.5 -2q41 -15 62.5 -23.5t59 -26t59 -32t48.5 -38.5t41 -49t24 -59t10 -73q0 -109 -73.5 -189t-205.5 -101l-41 -84q121 -41 121 -146q0 -83 -83.5 -129.5t-211.5 -58.5l-16 84 q182 24 182 98q0 38 -32.5 61t-98.5 39l65 129q-192 12 -342 138z" />
<glyph unicode="&#x160;" horiz-adv-x="1093" d="M86 174l102 119q74 -77 171.5 -122.5t199.5 -45.5q131 0 206 60t75 159q0 40 -12.5 72.5t-28.5 53.5t-50.5 43.5t-59 34.5t-73.5 34l-192 84q-272 114 -272 346q0 154 119 255t302 101q116 0 219.5 -45t178.5 -121l-92 -110q-134 127 -306 127q-113 0 -181 -53.5 t-68 -143.5q0 -37 14.5 -69t32 -52t53.5 -41.5t58 -32t65 -28.5l190 -82q64 -28 110 -57.5t86 -72t60.5 -100t20.5 -129.5q0 -164 -125 -273.5t-332 -109.5q-138 0 -259.5 53t-211.5 146zM293 1675h137l137 -139h8l138 139h137l-197 -229h-164z" />
<glyph unicode="&#x161;" horiz-adv-x="858" d="M57 113l84 112q71 -58 140.5 -88.5t152.5 -30.5q94 0 145.5 44t51.5 112q0 29 -14.5 55t-33 43.5t-54 36t-59.5 28.5t-67 26q-51 18 -86 33t-78.5 41t-69.5 53.5t-44.5 69t-18.5 89.5q0 123 92.5 203t250.5 80q168 0 309 -113l-80 -106q-117 88 -227 88q-89 0 -136 -41.5 t-47 -102.5q0 -32 16 -57.5t45.5 -43.5t63.5 -33t76 -31q4 -1 5.5 -1.5l4.5 -1.5t5.5 -2t4.5 -2q41 -15 62.5 -23.5t59 -26t59 -32t48.5 -38.5t41 -49t24 -59t10 -73q0 -127 -97 -212t-268 -85q-101 0 -199 38t-172 100zM186 1462h123l137 -188h9l137 188h121l-193 -288 h-139z" />
<glyph unicode="&#x162;" horiz-adv-x="1097" d="M57 1200v143h983v-143h-405v-1200h-25l-51 -102q121 -41 121 -146q0 -83 -83.5 -129.5t-211.5 -58.5l-16 84q182 24 182 98q0 38 -32.5 61t-98.5 39l78 154h-35v1200h-406z" />
<glyph unicode="&#x163;" horiz-adv-x="692" d="M49 858v127l156 10l20 279h142v-279h268v-137h-268v-553q0 -97 35 -144.5t118 -47.5q42 0 113 26l33 -127q-98 -32 -166 -37l-39 -77q121 -41 121 -146q0 -83 -83.5 -129.5t-211.5 -58.5l-17 84q183 24 183 98q0 38 -32.5 61t-98.5 39l71 140q-196 45 -196 321v551h-148z " />
<glyph unicode="&#x164;" horiz-adv-x="1097" d="M57 1200v143h983v-143h-405v-1200h-172v1200h-406zM270 1675h138l135 -139h8l137 139h137l-196 -229h-162z" />
<glyph unicode="&#x165;" horiz-adv-x="692" d="M49 858v127l156 10l20 279h142v-279h268v-137h-268v-553q0 -97 35 -144.5t118 -47.5q42 0 113 26l33 -127q-113 -37 -185 -37q-152 0 -218 87t-66 245v551h-148zM449 1120l34 338h138l-82 -338h-90z" />
<glyph unicode="&#x168;" horiz-adv-x="1320" d="M178 555v788h170v-792q0 -426 314 -426q317 0 317 426v792h164v-788q0 -157 -36 -272t-102.5 -181t-151 -96.5t-191.5 -30.5t-192 30.5t-152 96.5t-103.5 181t-36.5 272zM365 1456q9 98 55.5 159.5t118.5 61.5q45 0 89 -26.5t82.5 -53t69.5 -26.5t53 27.5t31 78.5h92 q-8 -97 -54 -159t-118 -62q-46 0 -91 27t-83 53.5t-69 26.5t-53 -27.5t-29 -79.5h-94z" />
<glyph unicode="&#x169;" horiz-adv-x="1114" d="M154 365v630h170v-608q0 -140 44 -203t142 -63q75 0 135.5 39t132.5 129v706h168v-995h-139l-14 156h-7q-75 -89 -152.5 -135t-174.5 -46q-305 0 -305 390zM272 1186q10 98 52.5 157.5t115.5 59.5q34 0 69.5 -16.5t60 -36t52.5 -36t50 -16.5q58 0 76 105h96 q-10 -98 -52.5 -157.5t-115.5 -59.5q-34 0 -69.5 16t-59.5 36t-53 36t-52 16q-58 0 -73 -104h-97z" />
<glyph unicode="&#x16a;" horiz-adv-x="1320" d="M178 555v788h170v-792q0 -426 314 -426q317 0 317 426v792h164v-788q0 -157 -36 -272t-102.5 -181t-151 -96.5t-191.5 -30.5t-192 30.5t-152 96.5t-103.5 181t-36.5 272zM408 1493v117h507v-117h-507z" />
<glyph unicode="&#x16b;" horiz-adv-x="1114" d="M154 365v630h170v-608q0 -140 44 -203t142 -63q75 0 135.5 39t132.5 129v706h168v-995h-139l-14 156h-7q-75 -89 -152.5 -135t-174.5 -46q-305 0 -305 390zM301 1231v117h502v-117h-502z" />
<glyph unicode="&#x16c;" horiz-adv-x="1320" d="M178 555v788h170v-792q0 -426 314 -426q317 0 317 426v792h164v-788q0 -157 -36 -272t-102.5 -181t-151 -96.5t-191.5 -30.5t-192 30.5t-152 96.5t-103.5 181t-36.5 272zM410 1675h102q10 -55 48 -92t102 -37t100.5 37t46.5 92h104q-12 -96 -74 -160.5t-177 -64.5 t-178.5 65t-73.5 160z" />
<glyph unicode="&#x16d;" horiz-adv-x="1114" d="M154 365v630h170v-608q0 -140 44 -203t142 -63q75 0 135.5 39t132.5 129v706h168v-995h-139l-14 156h-7q-75 -89 -152.5 -135t-174.5 -46q-305 0 -305 390zM299 1438h104q8 -66 48 -111t106 -45q67 0 106.5 45t49.5 111h104q-4 -48 -20.5 -92t-46.5 -83t-80 -62t-113 -23 t-112.5 23t-79 62t-46 83t-20.5 92z" />
<glyph unicode="&#x16e;" horiz-adv-x="1320" d="M178 555v788h170v-792q0 -426 314 -426q317 0 317 426v792h164v-788q0 -157 -36 -272t-102.5 -181t-151 -96.5t-191.5 -30.5t-192 30.5t-152 96.5t-103.5 181t-36.5 272zM469 1612q0 81 54 130.5t139 49.5q83 0 136.5 -49.5t53.5 -130.5q0 -82 -53.5 -131t-136.5 -49 q-86 0 -139.5 49t-53.5 131zM563 1612q0 -50 28 -78.5t71 -28.5q40 0 68 29t28 78q0 46 -28 75t-68 29q-42 0 -70.5 -29t-28.5 -75z" />
<glyph unicode="&#x16f;" horiz-adv-x="1114" d="M154 365v630h170v-608q0 -140 44 -203t142 -63q75 0 135.5 39t132.5 129v706h168v-995h-139l-14 156h-7q-75 -89 -152.5 -135t-174.5 -46q-305 0 -305 390zM367 1300q0 84 53 136.5t137 52.5q85 0 139 -52.5t54 -136.5q0 -86 -54 -138t-139 -52q-84 0 -137 52t-53 138z M459 1300q0 -51 28.5 -82.5t69.5 -31.5q42 0 70 31.5t28 82.5q0 50 -28 81.5t-70 31.5q-41 0 -69.5 -31.5t-28.5 -81.5z" />
<glyph unicode="&#x170;" horiz-adv-x="1320" d="M178 555v788h170v-792q0 -426 314 -426q317 0 317 426v792h164v-788q0 -157 -36 -272t-102.5 -181t-151 -96.5t-191.5 -30.5t-192 30.5t-152 96.5t-103.5 181t-36.5 272zM438 1446l135 229h158l-170 -229h-123zM762 1446l133 229h158l-170 -229h-121z" />
<glyph unicode="&#x171;" horiz-adv-x="1114" d="M154 365v630h170v-608q0 -140 44 -203t142 -63q75 0 135.5 39t132.5 129v706h168v-995h-139l-14 156h-7q-75 -89 -152.5 -135t-174.5 -46q-305 0 -305 390zM356 1169l146 293h147l-180 -293h-113zM657 1169l146 293h147l-180 -293h-113z" />
<glyph unicode="&#x172;" horiz-adv-x="1320" d="M178 555v788h170v-792q0 -426 314 -426q317 0 317 426v792h164v-788q0 -106 -16 -189.5t-42.5 -140.5t-70.5 -103.5t-89.5 -76t-109.5 -59.5q-76 -37 -119 -94t-43 -111q0 -45 29.5 -69.5t69.5 -24.5q43 0 82 28l47 -92q-30 -24 -77 -40.5t-87 -16.5q-86 0 -141.5 46.5 t-55.5 131.5q0 18 2.5 35.5t8.5 34t11 29.5t16 28.5t16.5 24t20 24t19 20l20 20l17.5 17.5q-108 2 -192.5 35t-148.5 100.5t-98 179t-34 263.5z" />
<glyph unicode="&#x173;" horiz-adv-x="1114" d="M154 365v630h170v-608q0 -140 43.5 -203t142.5 -63q75 0 135.5 39t132.5 129v706h168v-995q-178 -87 -178 -215q0 -45 28 -69.5t66 -24.5q43 0 84 26l43 -84q-29 -23 -75.5 -39t-84.5 -16q-82 0 -134 45.5t-52 128.5q0 137 166 256l-16 148h-7q-75 -89 -152.5 -135 t-174.5 -46q-305 0 -305 390z" />
<glyph unicode="&#x174;" horiz-adv-x="1609" d="M47 1343h176l142 -731q12 -73 38 -217t39 -217h9l94 434l186 731h156l186 -731l98 -434h9q73 423 75 434l142 731h164l-279 -1343h-205l-203 809q-32 132 -65 305h-8q-12 -62 -38.5 -176t-29.5 -129l-198 -809h-203zM526 1446l197 229h164l196 -229h-137l-137 139h-8 l-137 -139h-138z" />
<glyph unicode="&#x175;" horiz-adv-x="1470" d="M49 995h172l148 -575q24 -98 59 -277h8q6 25 29.5 124.5t38.5 152.5l153 575h164l156 -575l70 -277h8q14 55 61 277l146 575h159l-266 -995h-205l-143 535q-14 51 -35.5 147.5t-32.5 138.5h-8q-56 -245 -69 -289l-140 -532h-196zM475 1174l193 288h139l194 -288h-122 l-138 186h-8l-137 -186h-121z" />
<glyph unicode="&#x176;" horiz-adv-x="974" d="M-2 1343h182l174 -378l129 -293h9q113 241 135 293l172 378h178l-404 -823v-520h-172v520zM209 1446l197 229h163l197 -229h-137l-137 139h-9l-137 -139h-137z" />
<glyph unicode="&#x177;" horiz-adv-x="956" d="M25 995h174l202 -551q41 -113 97 -280h8q16 51 45 150t39 130l178 551h164l-375 -1077q-28 -79 -60 -138t-76.5 -108t-104 -74.5t-132.5 -25.5q-61 0 -116 20l32 134q50 -15 76 -15q154 0 225 213l23 74zM236 1174l192 288h139l195 -288h-123l-137 186h-8l-138 -186h-120 z" />
<glyph unicode="&#x178;" horiz-adv-x="974" d="M-2 1343h182l174 -378l129 -293h9q113 241 135 293l172 378h178l-404 -823v-520h-172v520zM211 1565q0 44 28 72t72 28q43 0 71 -28t28 -72q0 -43 -28 -72t-71 -29q-44 0 -72 29t-28 72zM563 1565q0 44 29 72t72 28t71.5 -28t28.5 -72q0 -43 -28.5 -72t-71.5 -29t-72 29 t-29 72z" />
<glyph unicode="&#x179;" horiz-adv-x="1103" d="M92 0v102l707 1098h-643v143h856v-100l-709 -1098h715v-145h-926zM471 1446l180 229h193l-232 -229h-141z" />
<glyph unicode="&#x17a;" horiz-adv-x="870" d="M63 0v90l525 768h-467v137h680v-90l-525 -768h541v-137h-754zM334 1174l186 288h176l-231 -288h-131z" />
<glyph unicode="&#x17b;" horiz-adv-x="1103" d="M92 0v102l707 1098h-643v143h856v-100l-709 -1098h715v-145h-926zM459 1573q0 47 33 77.5t83 30.5t83.5 -30.5t33.5 -77.5q0 -49 -33.5 -80t-83.5 -31t-83 31t-33 80z" />
<glyph unicode="&#x17c;" horiz-adv-x="870" d="M63 0v90l525 768h-467v137h680v-90l-525 -768h541v-137h-754zM358 1311q0 48 31 79t80 31q47 0 79 -31.5t32 -78.5q0 -49 -31.5 -80t-79.5 -31q-49 0 -80 31t-31 80z" />
<glyph unicode="&#x17d;" horiz-adv-x="1103" d="M92 0v102l707 1098h-643v143h856v-100l-709 -1098h715v-145h-926zM297 1675h137l137 -139h9l137 139h137l-197 -229h-163z" />
<glyph unicode="&#x17e;" horiz-adv-x="870" d="M63 0v90l525 768h-467v137h680v-90l-525 -768h541v-137h-754zM205 1462h123l137 -188h8l137 188h121l-194 -288h-138z" />
<glyph unicode="&#x180;" horiz-adv-x="1114" d="M16 1169v88l152 11v190h168v-190h373v-99h-373v-149l-4 -180q156 139 311 139q190 0 292.5 -130t102.5 -355q0 -119 -35 -218.5t-95 -164.5t-137 -100.5t-163 -35.5q-145 0 -284 123h-7l-14 -98h-135v1169h-152zM336 221q120 -104 244 -104q125 0 204.5 101.5t79.5 273.5 q0 163 -63.5 254.5t-198.5 91.5q-121 0 -266 -136v-481z" />
<glyph unicode="&#x18f;" horiz-adv-x="1349" d="M119 666q0 15 4 51h950q-9 239 -114.5 374.5t-292.5 135.5q-96 0 -180.5 -36t-147.5 -97l-82 116q76 73 184.5 115.5t239.5 42.5q259 0 411 -185.5t152 -506.5q0 -319 -158 -510t-413 -191q-251 0 -402 189.5t-151 501.5zM293 586q12 -218 115 -343.5t264 -125.5 q163 0 270 125.5t127 343.5h-776z" />
<glyph unicode="&#x192;" horiz-adv-x="1017" d="M37 -168l31 127q47 -20 102 -20q91 0 135 77t62 242l49 449h-178v120l141 9h51l12 114q24 211 104.5 314.5t239.5 103.5q80 0 160 -37l-37 -129q-70 29 -114 29q-158 0 -189 -266l-14 -129h258v-129h-272l-54 -486q-11 -99 -33.5 -172t-61 -131t-99.5 -87.5t-144 -29.5 q-92 0 -149 31z" />
<glyph unicode="&#x1a0;" horiz-adv-x="1359" d="M111 678q0 318 159 504t416 186q148 0 266 -65q86 15 126 48t40 89q0 37 -28 84l120 59q47 -64 47 -133q0 -164 -208 -215q100 -91 155.5 -233.5t55.5 -323.5q0 -320 -159.5 -511.5t-414.5 -191.5q-256 0 -415.5 191t-159.5 512zM287 678q0 -252 108.5 -402.5 t290.5 -150.5q180 0 288.5 150.5t108.5 402.5q0 249 -108 395t-289 146q-182 0 -290.5 -146t-108.5 -395z" />
<glyph unicode="&#x1a1;" horiz-adv-x="1110" d="M94 496q0 122 37.5 222.5t101.5 165.5t147 100.5t175 35.5q106 0 193 -43q151 25 151 133q0 40 -31 86l123 59q47 -64 47 -133q0 -156 -190 -211q78 -70 123 -176t45 -239q0 -120 -37.5 -220t-101.5 -165t-147 -100.5t-175 -35.5t-175 35.5t-147 100.5t-101.5 165 t-37.5 220zM268 496q0 -170 79.5 -275.5t207.5 -105.5q129 0 208 105.5t79 275.5q0 172 -79 278.5t-208 106.5q-128 0 -207.5 -106.5t-79.5 -278.5z" />
<glyph unicode="&#x1af;" horiz-adv-x="1349" d="M178 555v788h170v-792q0 -426 314 -426q317 0 317 426v792h68q91 8 137.5 39.5t46.5 98.5q0 37 -31 84l121 59q47 -60 47 -133q0 -171 -225 -221v-715q0 -157 -36 -272t-102.5 -181t-151 -96.5t-191.5 -30.5t-192 30.5t-152 96.5t-103.5 181t-36.5 272z" />
<glyph unicode="&#x1b0;" horiz-adv-x="1114" d="M154 365v630h170v-608q0 -140 44 -203t142 -63q75 0 135.5 39t132.5 129v706h43q172 18 172 135q0 40 -28 87l120 59q48 -66 48 -133q0 -156 -187 -211v-932h-139l-14 156h-7q-75 -89 -152.5 -135t-174.5 -46q-305 0 -305 390z" />
<glyph unicode="&#x1cd;" horiz-adv-x="1114" d="M6 0l455 1343h192l455 -1343h-182l-127 410h-490l-129 -410h-174zM276 1675h136l137 -139h8l137 139h137l-196 -229h-162zM352 547h404l-64 205q-67 204 -135 452h-8q-60 -230 -133 -452z" />
<glyph unicode="&#x1ce;" horiz-adv-x="1048" d="M119 258q0 162 146 250t466 123q0 51 -9.5 93t-31.5 79t-64 57.5t-100 20.5q-140 0 -297 -107l-67 117q201 129 391 129q177 0 261.5 -108t84.5 -302v-610h-139l-15 119h-4q-177 -144 -329 -144q-129 0 -211 76t-82 207zM285 270q0 -81 48 -120t126 -39q69 0 132.5 32.5 t139.5 100.5v276q-242 -30 -344 -90.5t-102 -159.5zM289 1462h121l137 -188h8l137 188h123l-194 -288h-140z" />
<glyph unicode="&#x1cf;" horiz-adv-x="538" d="M-8 1675h135l137 -139h8l138 139h137l-197 -229h-162zM184 0v1343h170v-1343h-170z" />
<glyph unicode="&#x1d0;" horiz-adv-x="503" d="M-10 1462h121l137 -188h8l137 188h123l-194 -288h-140zM168 0v995h168v-995h-168z" />
<glyph unicode="&#x1d1;" horiz-adv-x="1359" d="M106 678q0 318 158.5 504t415.5 186t416 -186.5t159 -503.5q0 -321 -159.5 -512t-415.5 -191t-415 191t-159 512zM283 678q0 -252 108.5 -402.5t288.5 -150.5t288.5 150.5t108.5 402.5q0 249 -108 395t-289 146t-289 -146t-108 -395zM401 1675h138l137 -139h8l137 139 h137l-196 -229h-164z" />
<glyph unicode="&#x1d2;" horiz-adv-x="1110" d="M94 496q0 122 37.5 222.5t101.5 165.5t147 100.5t175 35.5t175 -35.5t147 -100.5t101.5 -165.5t37.5 -222.5q0 -120 -37.5 -220t-101.5 -165t-147 -100.5t-175 -35.5t-175 35.5t-147 100.5t-101.5 165t-37.5 220zM268 496q0 -170 79.5 -275.5t207.5 -105.5 q129 0 208 105.5t79 275.5q0 172 -79 278.5t-208 106.5q-128 0 -207.5 -106.5t-79.5 -278.5zM293 1462h121l137 -188h8l137 188h123l-194 -288h-140z" />
<glyph unicode="&#x1d3;" horiz-adv-x="1320" d="M178 555v788h170v-792q0 -426 314 -426q317 0 317 426v792h164v-788q0 -157 -36 -272t-102.5 -181t-151 -96.5t-191.5 -30.5t-192 30.5t-152 96.5t-103.5 181t-36.5 272zM383 1675h137l137 -139h9l137 139h135l-197 -229h-161z" />
<glyph unicode="&#x1d4;" horiz-adv-x="1114" d="M154 365v630h170v-608q0 -140 44 -203t142 -63q75 0 135.5 39t132.5 129v706h168v-995h-139l-14 156h-7q-75 -89 -152.5 -135t-174.5 -46q-305 0 -305 390zM295 1462h121l137 -188h8l137 188h123l-194 -288h-140z" />
<glyph unicode="&#x1d5;" horiz-adv-x="1320" d="M178 555v788h170v-792q0 -426 314 -426q317 0 317 426v792h164v-788q0 -157 -36 -272t-102.5 -181t-151 -96.5t-191.5 -30.5t-192 30.5t-152 96.5t-103.5 181t-36.5 272zM391 1559q0 40 26 66t66 26q41 0 68 -26t27 -66q0 -41 -27 -68t-68 -27q-40 0 -66 27t-26 68z M408 1763v95h507v-95h-507zM745 1559q0 40 26.5 66t66.5 26t66 -26t26 -66q0 -41 -26 -68t-66 -27t-66.5 27t-26.5 68z" />
<glyph unicode="&#x1d6;" horiz-adv-x="1114" d="M154 365v630h170v-608q0 -140 44 -203t142 -63q75 0 135.5 39t132.5 129v706h168v-995h-139l-14 156h-7q-75 -89 -152.5 -135t-174.5 -46q-305 0 -305 390zM289 1296q0 40 26.5 67.5t65.5 27.5t65.5 -27.5t26.5 -67.5q0 -39 -26.5 -65.5t-65.5 -26.5t-65.5 26.5 t-26.5 65.5zM305 1536v96h504v-96h-504zM641 1296q0 40 27 67.5t67 27.5q39 0 65.5 -27.5t26.5 -67.5q0 -39 -26.5 -65.5t-65.5 -26.5q-40 0 -67 27t-27 65z" />
<glyph unicode="&#x1d7;" horiz-adv-x="1320" d="M178 555v788h170v-792q0 -426 314 -426q317 0 317 426v792h164v-788q0 -157 -36 -272t-102.5 -181t-151 -96.5t-191.5 -30.5t-192 30.5t-152 96.5t-103.5 181t-36.5 272zM391 1559q0 40 26 66t66 26q41 0 68 -26t27 -66q0 -41 -27 -68t-68 -27q-40 0 -66 27t-26 68z M557 1718l182 228h187l-232 -228h-137zM745 1559q0 40 26.5 66t66.5 26t66 -26t26 -66q0 -41 -26 -68t-66 -27t-66.5 27t-26.5 68z" />
<glyph unicode="&#x1d8;" horiz-adv-x="1114" d="M154 365v630h170v-608q0 -140 44 -203t142 -63q75 0 135.5 39t132.5 129v706h168v-995h-139l-14 156h-7q-75 -89 -152.5 -135t-174.5 -46q-305 0 -305 390zM289 1296q0 40 26.5 67.5t65.5 27.5t65.5 -27.5t26.5 -67.5q0 -39 -26.5 -65.5t-65.5 -26.5t-65.5 26.5 t-26.5 65.5zM451 1475l165 211h164l-213 -211h-116zM641 1296q0 40 27 67.5t67 27.5q39 0 65.5 -27.5t26.5 -67.5q0 -39 -26.5 -65.5t-65.5 -26.5q-40 0 -67 27t-27 65z" />
<glyph unicode="&#x1d9;" horiz-adv-x="1320" d="M178 555v788h170v-792q0 -426 314 -426q317 0 317 426v792h164v-788q0 -157 -36 -272t-102.5 -181t-151 -96.5t-191.5 -30.5t-192 30.5t-152 96.5t-103.5 181t-36.5 272zM383 1946h137l137 -140h9l137 140h135l-197 -228h-161zM391 1559q0 40 26 66t66 26q41 0 68 -26 t27 -66q0 -41 -27 -68t-68 -27q-40 0 -66 27t-26 68zM745 1559q0 40 26.5 66t66.5 26t66 -26t26 -66q0 -41 -26 -68t-66 -27t-66.5 27t-26.5 68z" />
<glyph unicode="&#x1da;" horiz-adv-x="1114" d="M154 365v630h170v-608q0 -140 44 -203t142 -63q75 0 135.5 39t132.5 129v706h168v-995h-139l-14 156h-7q-75 -89 -152.5 -135t-174.5 -46q-305 0 -305 390zM289 1296q0 40 26.5 67.5t65.5 27.5t65.5 -27.5t26.5 -67.5q0 -39 -26.5 -65.5t-65.5 -26.5t-65.5 26.5 t-26.5 65.5zM301 1686h125l127 -132h8l129 132h125l-184 -211h-146zM641 1296q0 40 27 67.5t67 27.5q39 0 65.5 -27.5t26.5 -67.5q0 -39 -26.5 -65.5t-65.5 -26.5q-40 0 -67 27t-27 65z" />
<glyph unicode="&#x1db;" horiz-adv-x="1320" d="M178 555v788h170v-792q0 -426 314 -426q317 0 317 426v792h164v-788q0 -157 -36 -272t-102.5 -181t-151 -96.5t-191.5 -30.5t-192 30.5t-152 96.5t-103.5 181t-36.5 272zM391 1559q0 40 26 66t66 26q41 0 68 -26t27 -66q0 -41 -27 -68t-68 -27q-40 0 -66 27t-26 68z M397 1946h185l184 -228h-139zM745 1559q0 40 26.5 66t66.5 26t66 -26t26 -66q0 -41 -26 -68t-66 -27t-66.5 27t-26.5 68z" />
<glyph unicode="&#x1dc;" horiz-adv-x="1114" d="M154 365v630h170v-608q0 -140 44 -203t142 -63q75 0 135.5 39t132.5 129v706h168v-995h-139l-14 156h-7q-75 -89 -152.5 -135t-174.5 -46q-305 0 -305 390zM289 1296q0 40 26.5 67.5t65.5 27.5t65.5 -27.5t26.5 -67.5q0 -39 -26.5 -65.5t-65.5 -26.5t-65.5 26.5 t-26.5 65.5zM336 1686h162l168 -211h-119zM641 1296q0 40 27 67.5t67 27.5q39 0 65.5 -27.5t26.5 -67.5q0 -39 -26.5 -65.5t-65.5 -26.5q-40 0 -67 27t-27 65z" />
<glyph unicode="&#x1e6;" horiz-adv-x="1263" d="M106 672q0 159 46.5 290.5t128.5 220t196 137t248 48.5q227 0 385 -166l-96 -108q-118 125 -287 125q-203 0 -323.5 -146.5t-120.5 -396.5q0 -257 116.5 -404t329.5 -147q72 0 137 21.5t105 58.5v350h-285v141h440v-565q-69 -71 -177 -113.5t-238 -42.5q-176 0 -312.5 82 t-214.5 241t-78 374zM446 1675h138l137 -139h8l137 139h135l-196 -229h-162z" />
<glyph unicode="&#x1e7;" horiz-adv-x="1032" d="M92 -190q0 62 38.5 120t107.5 105v8q-88 56 -88 162q0 58 31.5 105.5t76.5 78.5v8q-55 44 -92 115t-37 154q0 158 109 256t266 98q75 0 141 -25h346v-129h-205q37 -35 59.5 -89t22.5 -115q0 -156 -104 -251.5t-260 -95.5q-82 0 -150 35q-63 -56 -63 -119q0 -108 176 -108 h192q176 0 262.5 -57.5t86.5 -180.5q0 -143 -139.5 -243.5t-364.5 -100.5q-187 0 -299.5 71t-112.5 198zM227 1462h123l137 -188h9l137 188h121l-195 -288h-137zM240 -168q0 -80 77 -127t211 -47q138 0 227 61t89 142q0 67 -50 95t-151 28h-172q-72 0 -129 16 q-102 -72 -102 -168zM293 666q0 -106 61 -172t150 -66t150 66t61 172t-60 168.5t-151 62.5t-151 -62.5t-60 -168.5z" />
<glyph unicode="&#x1ea;" horiz-adv-x="1359" d="M106 678q0 318 158.5 504t415.5 186t416 -186.5t159 -503.5q0 -267 -105 -431.5t-314 -260.5q-79 -35 -119.5 -91.5t-40.5 -113.5q0 -45 29 -69.5t69 -24.5q43 0 82 28l47 -92q-30 -24 -77 -40.5t-87 -16.5q-85 0 -139.5 46.5t-54.5 131.5q0 65 34 126t91 107 q-259 6 -411.5 196t-152.5 505zM283 678q0 -252 108.5 -402.5t288.5 -150.5t288.5 150.5t108.5 402.5q0 249 -108 395t-289 146t-289 -146t-108 -395z" />
<glyph unicode="&#x1eb;" horiz-adv-x="1110" d="M94 496q0 122 37.5 222.5t101.5 165.5t147 100.5t175 35.5t175 -35.5t147 -100.5t101.5 -165.5t37.5 -222.5q0 -196 -84 -314.5t-242 -189.5q-67 -31 -106 -89t-39 -118q0 -45 27.5 -69.5t66.5 -24.5q40 0 84 26l43 -84q-29 -23 -75.5 -39t-86.5 -16q-80 0 -132 45.5 t-52 128.5q0 69 35.5 128.5t79.5 96.5q-90 5 -170 42.5t-140.5 103t-95.5 162t-35 211.5zM268 496q0 -170 79.5 -275.5t207.5 -105.5q129 0 208 105.5t79 275.5q0 172 -79 278.5t-208 106.5q-128 0 -207.5 -106.5t-79.5 -278.5z" />
<glyph unicode="&#x218;" horiz-adv-x="1093" d="M86 174l102 119q74 -77 171.5 -122.5t199.5 -45.5q131 0 206 60t75 159q0 40 -12.5 72.5t-28.5 53.5t-50.5 43.5t-59 34.5t-73.5 34l-192 84q-272 114 -272 346q0 154 119 255t302 101q116 0 219.5 -45t178.5 -121l-92 -110q-134 127 -306 127q-113 0 -181 -53.5 t-68 -143.5q0 -37 14.5 -69t32 -52t53.5 -41.5t58 -32t65 -28.5l190 -82q64 -28 110 -57.5t86 -72t60.5 -100t20.5 -129.5q0 -164 -125 -273.5t-332 -109.5q-138 0 -259.5 53t-211.5 146zM385 -360q182 24 182 94q0 65 -106 90l37 78q105 -15 152.5 -52t47.5 -106 q0 -83 -84.5 -129.5t-212.5 -56.5z" />
<glyph unicode="&#x219;" horiz-adv-x="858" d="M57 113l84 112q71 -58 140.5 -88.5t152.5 -30.5q94 0 145.5 44t51.5 112q0 29 -14.5 55t-33 43.5t-54 36t-59.5 28.5t-67 26q-51 18 -86 33t-78.5 41t-69.5 53.5t-44.5 69t-18.5 89.5q0 123 92.5 203t250.5 80q168 0 309 -113l-80 -106q-117 88 -227 88q-89 0 -136 -41.5 t-47 -102.5q0 -32 16 -57.5t45.5 -43.5t63.5 -33t76 -31q4 -1 5.5 -1.5l4.5 -1.5t5.5 -2t4.5 -2q41 -15 62.5 -23.5t59 -26t59 -32t48.5 -38.5t41 -49t24 -59t10 -73q0 -127 -97 -212t-268 -85q-101 0 -199 38t-172 100zM283 -360q182 24 182 94q0 65 -107 90l39 78 q104 -15 151.5 -52.5t47.5 -105.5q0 -57 -43 -98t-107 -61.5t-147 -26.5z" />
<glyph unicode="&#x21a;" horiz-adv-x="1097" d="M57 1200v143h983v-143h-405v-1200h-172v1200h-406zM377 -360q182 24 182 94q0 65 -106 90l39 78q104 -15 151 -52.5t47 -105.5q0 -57 -43 -98t-107 -61.5t-147 -26.5z" />
<glyph unicode="&#x21b;" horiz-adv-x="692" d="M49 858v127l156 10l20 279h142v-279h268v-137h-268v-553q0 -97 35 -144.5t118 -47.5q42 0 113 26l33 -127q-113 -37 -185 -37q-152 0 -218 87t-66 245v551h-148zM262 -360q182 23 182 94q0 37 -27 57.5t-77 32.5l37 78q105 -15 151.5 -52t46.5 -106q0 -57 -42.5 -98 t-106 -61.5t-145.5 -26.5z" />
<glyph unicode="&#x237;" horiz-adv-x="505" d="M-82 -418l35 127q50 -16 94 -16q70 0 96.5 48t26.5 146v1108h168v-1108q0 -160 -64.5 -245.5t-207.5 -85.5q-83 0 -148 26z" />
<glyph unicode="&#x243;" horiz-adv-x="1234" d="M61 362v89l158 8v884h399q140 0 241 -32t160.5 -106t59.5 -185q0 -102 -59 -177.5t-174 -105.5v-8q150 -24 230.5 -106.5t80.5 -221.5q0 -196 -138 -298.5t-370 -102.5h-430v362h-158zM389 129h236q175 0 270.5 70.5t95.5 210.5q0 256 -366 256h-236v-207h311v-97h-311 v-233zM389 778h201q167 0 246 57.5t79 172.5q0 108 -79.5 158.5t-239.5 50.5h-207v-439z" />
<glyph unicode="&#x251;" horiz-adv-x="1136" d="M96 496q0 118 36 218t96 166t138.5 103t163.5 37q81 0 147 -29.5t136 -91.5h4l14 96h138v-995h-140l-14 117h-6q-146 -142 -301 -142q-190 0 -301 137.5t-111 383.5zM270 498q0 -179 72.5 -280t202.5 -101q132 0 254 137v520q-116 105 -242 105q-122 0 -204.5 -106.5 t-82.5 -274.5z" />
<glyph unicode="&#x259;" horiz-adv-x="1015" d="M76 455q0 44 8 94h670q-8 155 -86 246.5t-211 91.5q-126 0 -258 -86l-60 110q159 109 344 109q192 0 315.5 -140t123.5 -380q0 -159 -58.5 -279.5t-156.5 -183t-220 -62.5q-189 0 -300 129t-111 351zM225 436q0 -161 68.5 -243t189.5 -82q116 0 188 84.5t85 240.5h-531z " />
<glyph unicode="&#x261;" horiz-adv-x="1144" d="M102 512q0 113 36 210t96 161.5t138.5 100.5t162.5 36q82 0 147 -28.5t131 -88.5h4l14 92h142v-1044q0 -185 -116 -289t-327 -104q-196 0 -356 108l62 119q137 -92 294 -92q133 0 201.5 69t73.5 193l2 188q-137 -133 -295 -133q-189 0 -299.5 134t-110.5 368zM274 514 q0 -169 72.5 -266.5t202.5 -97.5q128 0 256 137v487q-119 105 -244 105q-121 0 -204 -103.5t-83 -261.5z" />
<glyph unicode="&#x2b9;" horiz-adv-x="509" d="M166 889l47 524h166l-33 -205l-70 -319h-110z" />
<glyph unicode="&#x2bb;" horiz-adv-x="509" d="M117 1061q0 238 217 364l49 -79q-81 -53 -118.5 -111t-37.5 -143q6 2 19 2q44 0 76 -28t32 -77q0 -52 -30 -82t-78 -30q-62 0 -95.5 47.5t-33.5 136.5z" />
<glyph unicode="&#x2bc;" horiz-adv-x="509" d="M129 961q80 53 117 111.5t37 144.5q-9 -3 -17 -3q-45 0 -76.5 27.5t-31.5 75.5q0 53 30 84t78 31q60 0 94.5 -49t34.5 -138q0 -235 -219 -362z" />
<glyph unicode="&#x2be;" horiz-adv-x="307" d="M61 1110v74q132 0 132 116q0 115 -132 115v74q108 3 168 -48.5t60 -140.5q0 -91 -59.5 -142t-168.5 -48z" />
<glyph unicode="&#x2bf;" horiz-adv-x="331" d="M41 1300q0 89 60 140.5t167 48.5v-74q-131 0 -131 -115q0 -116 131 -116v-74q-107 -3 -167 48.5t-60 141.5z" />
<glyph unicode="&#x2c6;" horiz-adv-x="1110" d="M293 1174l192 288h140l194 -288h-123l-137 186h-8l-137 -186h-121z" />
<glyph unicode="&#x2c7;" horiz-adv-x="1110" d="M293 1462h121l137 -188h8l137 188h123l-194 -288h-140z" />
<glyph unicode="&#x2c8;" horiz-adv-x="233" d="M45 1466h143l-12 -374h-119z" />
<glyph unicode="&#x2c9;" horiz-adv-x="567" d="M33 1231v117h502v-117h-502z" />
<glyph unicode="&#x2ca;" horiz-adv-x="460" d="M94 1174l185 288h176l-232 -288h-129z" />
<glyph unicode="&#x2cb;" horiz-adv-x="460" d="M0 1462h176l184 -288h-129z" />
<glyph unicode="&#x2cc;" horiz-adv-x="233" d="M45 -520l12 375h119l12 -375h-143z" />
<glyph unicode="&#x2d8;" horiz-adv-x="1110" d="M297 1438h104q8 -66 47.5 -111t106.5 -45t106.5 45t47.5 111h104q-3 -48 -19.5 -92t-46 -83t-79.5 -62t-113 -23t-113 23t-79.5 62t-46 83t-19.5 92z" />
<glyph unicode="&#x2d9;" horiz-adv-x="1110" d="M444 1311q0 47 32 78.5t79 31.5t79 -31.5t32 -78.5q0 -49 -31.5 -80t-79.5 -31t-79.5 31t-31.5 80z" />
<glyph unicode="&#x2da;" horiz-adv-x="1110" d="M365 1300q0 84 53 136.5t137 52.5t138.5 -52.5t54.5 -136.5q0 -85 -54.5 -137.5t-138.5 -52.5t-137 52t-53 138zM457 1300q0 -51 28 -82.5t70 -31.5t70 31.5t28 82.5q0 50 -28 81.5t-70 31.5t-70 -31.5t-28 -81.5z" />
<glyph unicode="&#x2db;" horiz-adv-x="1110" d="M420 -248q0 76 42.5 142.5t102.5 111.5h119q-139 -104 -139 -221q0 -45 27.5 -69.5t66.5 -24.5q43 0 84 26l43 -84q-29 -23 -75.5 -39t-86.5 -16q-80 0 -132 45.5t-52 128.5z" />
<glyph unicode="&#x2dc;" horiz-adv-x="1110" d="M270 1186q8 97 51 157t115 60q35 0 71 -16.5t60.5 -36t52.5 -36t50 -16.5q57 0 75 105h95q-8 -97 -51 -157t-115 -60q-34 0 -69.5 16t-59.5 36t-53 36t-52 16q-58 0 -73 -104h-97z" />
<glyph unicode="&#x2dd;" horiz-adv-x="1110" d="M354 1169l146 293h147l-180 -293h-113zM655 1169l146 293h147l-180 -293h-113z" />
<glyph unicode="&#x300;" d="M-227 1462h176l184 -288h-129z" />
<glyph unicode="&#x301;" d="M-133 1174l184 288h176l-231 -288h-129z" />
<glyph unicode="&#x302;" d="M-264 1174l194 288h140l194 -288h-123l-137 186h-8l-137 -186h-123z" />
<glyph unicode="&#x303;" d="M-285 1186q8 97 51 157t115 60q35 0 71 -16.5t60.5 -36t52.5 -36t50 -16.5q57 0 75 105h95q-8 -97 -51 -157t-115 -60q-35 0 -70.5 16t-59.5 36t-52.5 36t-51.5 16q-30 0 -48 -25.5t-27 -78.5h-95z" />
<glyph unicode="&#x304;" d="M-252 1231v117h504v-117h-504z" />
<glyph unicode="&#x306;" d="M-258 1438h104q8 -66 47.5 -111t106.5 -45t106.5 45t47.5 111h104q-3 -48 -19.5 -92t-46 -83t-79.5 -62t-113 -23t-113 23t-79.5 62t-46 83t-19.5 92z" />
<glyph unicode="&#x307;" d="M-111 1311q0 47 32 78.5t79 31.5t79 -31.5t32 -78.5q0 -49 -31.5 -80t-79.5 -31t-79.5 31t-31.5 80z" />
<glyph unicode="&#x308;" d="M-276 1305q0 43 28 71.5t72 28.5q43 0 71.5 -28.5t28.5 -71.5t-28.5 -72t-71.5 -29q-44 0 -72 29t-28 72zM76 1305q0 43 28.5 71.5t71.5 28.5q44 0 72 -28.5t28 -71.5t-28 -72t-72 -29q-43 0 -71.5 29t-28.5 72z" />
<glyph unicode="&#x309;" d="M-131 1391l18 98q135 -5 209 -47t74 -119q0 -152 -227 -190l-19 77q115 31 115 95q0 80 -170 86z" />
<glyph unicode="&#x30a;" d="M-190 1300q0 84 53 136.5t137 52.5t137 -52.5t53 -136.5q0 -86 -53 -138t-137 -52t-137 52t-53 138zM-98 1300q0 -51 28 -82.5t70 -31.5t70 31.5t28 82.5q0 50 -28 81.5t-70 31.5t-70 -31.5t-28 -81.5z" />
<glyph unicode="&#x30b;" d="M-201 1169l144 293h149l-180 -293h-113zM100 1169l146 293h147l-180 -293h-113z" />
<glyph unicode="&#x30c;" d="M-264 1462h123l137 -188h8l137 188h123l-194 -288h-140z" />
<glyph unicode="&#x30f;" d="M-393 1462h147l146 -293h-113zM-92 1462h149l144 -293h-113z" />
<glyph unicode="&#x312;" d="M-109 1257q0 76 41 140t125 102l37 -65q-111 -53 -117 -148q6 2 17 2q33 0 58.5 -21.5t25.5 -58.5q0 -44 -23 -68t-59 -24q-51 0 -78 36t-27 105z" />
<glyph unicode="&#x313;" d="M-96 1180q110 53 116 147q-6 -2 -18 -2q-33 0 -58.5 21.5t-25.5 58.5q0 42 24 66t60 24q50 0 76 -36t26 -105q0 -76 -40.5 -139t-124.5 -101z" />
<glyph unicode="&#x31b;" d="M-18 973q89 11 130.5 42t41.5 93q0 37 -29 86l121 57q47 -64 47 -131q0 -106 -79.5 -162t-215.5 -69z" />
<glyph unicode="&#x323;" d="M-111 -311q0 47 31.5 77.5t79.5 30.5t79.5 -30.5t31.5 -77.5q0 -49 -31.5 -80t-79.5 -31t-79.5 31t-31.5 80z" />
<glyph unicode="&#x324;" d="M-276 -311q0 43 28 71.5t72 28.5q43 0 71.5 -28.5t28.5 -71.5q0 -42 -29 -71.5t-71 -29.5q-43 0 -71.5 29.5t-28.5 71.5zM76 -311q0 43 28.5 71.5t71.5 28.5q44 0 72 -28.5t28 -71.5q0 -42 -28.5 -71.5t-71.5 -29.5q-42 0 -71 29.5t-29 71.5z" />
<glyph unicode="&#x326;" d="M-174 -360q182 23 182 94q0 37 -27.5 57.5t-76.5 32.5l37 78q105 -15 151.5 -52t46.5 -106q0 -57 -43 -98t-107 -61.5t-147 -26.5z" />
<glyph unicode="&#x327;" d="M-174 -352q182 23 182 98q0 38 -32 61t-97 39l82 160h109l-52 -108q121 -42 121 -146q0 -83 -84 -129.5t-213 -58.5z" />
<glyph unicode="&#x328;" d="M-135 -248q0 76 42.5 142.5t102.5 111.5h119q-139 -104 -139 -221q0 -45 27.5 -69.5t66.5 -24.5q45 0 82 26l45 -84q-29 -23 -76.5 -39t-85.5 -16q-80 0 -132 45.5t-52 128.5z" />
<glyph unicode="&#x32e;" d="M-258 -162h104q8 -66 47 -110.5t107 -44.5t107 44.5t47 110.5h104q-3 -48 -19.5 -92t-46 -83t-79.5 -62t-113 -23t-113 23t-79.5 62t-46 83t-19.5 92z" />
<glyph unicode="&#x331;" d="M-254 -231h506v-119h-506v119z" />
<glyph unicode="&#x3c0;" horiz-adv-x="1148" d="M49 856v129l141 10h895v-139h-151v-637q0 -50 18 -77t52 -27q16 0 49 10l22 -129q-49 -21 -112 -21q-199 0 -199 256v625h-373v-856h-166v856h-176z" />
<glyph unicode="&#x1e06;" horiz-adv-x="1204" d="M184 0v1343h400q216 0 338 -79t122 -248q0 -104 -59.5 -183.5t-173.5 -109.5v-8q150 -24 230.5 -105t80.5 -217q0 -192 -138 -292.5t-372 -100.5h-428zM354 135h234q177 0 271.5 66t94.5 200q0 242 -366 242h-234v-508zM354 770h199q168 0 246 58t78 173q0 107 -78.5 157 t-237.5 50h-207v-438zM360 -231h504v-119h-504v119z" />
<glyph unicode="&#x1e07;" horiz-adv-x="1136" d="M168 0v1458h168v-397l-4 -180q156 139 311 139q190 0 292.5 -135.5t102.5 -370.5q0 -124 -35 -227t-95 -170.5t-137 -104.5t-163 -37q-145 0 -284 123h-7l-14 -98h-135zM328 -231h503v-119h-503v119zM336 221q120 -104 244 -104q125 0 204.5 107t79.5 288 q0 173 -63.5 270t-198.5 97q-121 0 -266 -136v-522z" />
<glyph unicode="&#x1e0c;" horiz-adv-x="1259" d="M184 0v1343h336q309 0 472 -172t163 -493q0 -323 -162 -500.5t-465 -177.5h-344zM354 139h154q232 0 351.5 140.5t119.5 398.5q0 256 -119 391t-352 135h-154v-1065zM514 -311q0 47 31 77.5t80 30.5q47 0 78.5 -30.5t31.5 -77.5q0 -49 -31 -80t-79 -31q-49 0 -80 31 t-31 80z" />
<glyph unicode="&#x1e0d;" horiz-adv-x="1136" d="M96 496q0 118 35.5 218t95.5 166t138 103t163 37q81 0 144 -28t135 -87l-8 170v383h170v-1458h-140l-14 117h-6q-146 -142 -301 -142q-190 0 -301 137.5t-111 383.5zM270 498q0 -179 72.5 -280t202.5 -101q132 0 254 137v520q-116 105 -242 105q-122 0 -204.5 -106.5 t-82.5 -274.5zM508 -311q0 47 31.5 77.5t78.5 30.5q48 0 79.5 -30.5t31.5 -77.5q0 -49 -31.5 -80t-79.5 -31t-79 31t-31 80z" />
<glyph unicode="&#x1e0e;" horiz-adv-x="1259" d="M184 0v1343h336q309 0 472 -172t163 -493q0 -323 -162 -500.5t-465 -177.5h-344zM354 139h154q232 0 351.5 140.5t119.5 398.5q0 256 -119 391t-352 135h-154v-1065zM371 -231h503v-119h-503v119z" />
<glyph unicode="&#x1e0f;" horiz-adv-x="1136" d="M96 496q0 118 35.5 218t95.5 166t138 103t163 37q81 0 144 -28t135 -87l-8 170v383h170v-1458h-140l-14 117h-6q-146 -142 -301 -142q-190 0 -301 137.5t-111 383.5zM270 498q0 -179 72.5 -280t202.5 -101q132 0 254 137v520q-116 105 -242 105q-122 0 -204.5 -106.5 t-82.5 -274.5zM365 -231h503v-119h-503v119z" />
<glyph unicode="&#x1e16;" horiz-adv-x="1079" d="M184 0v1343h774v-143h-604v-422h510v-145h-510v-488h625v-145h-795zM324 1493v117h507v-117h-507zM473 1718l184 228h185l-230 -228h-139z" />
<glyph unicode="&#x1e17;" horiz-adv-x="1015" d="M94 496q0 118 38 218.5t100.5 166.5t142.5 102.5t166 36.5q188 0 292.5 -125.5t104.5 -341.5q0 -55 -6 -92h-672q9 -161 99 -255.5t233 -94.5q127 0 248 77l59 -110q-161 -103 -328 -103q-205 0 -341 141.5t-136 379.5zM258 571h533q0 152 -64.5 234t-181.5 82 q-109 0 -190.5 -85t-96.5 -231zM291 1231v117h502v-117h-502zM434 1475l166 211h164l-213 -211h-117z" />
<glyph unicode="&#x1e20;" horiz-adv-x="1263" d="M106 672q0 159 46.5 290.5t128.5 220t196 137t248 48.5q227 0 385 -166l-96 -108q-118 125 -287 125q-203 0 -323.5 -146.5t-120.5 -396.5q0 -257 116.5 -404t329.5 -147q72 0 137 21.5t105 58.5v350h-285v141h440v-565q-69 -71 -177 -113.5t-238 -42.5q-176 0 -312.5 82 t-214.5 241t-78 374zM471 1493v117h508v-117h-508z" />
<glyph unicode="&#x1e21;" horiz-adv-x="1032" d="M92 -190q0 62 38.5 120t107.5 105v8q-88 56 -88 162q0 58 31.5 105.5t76.5 78.5v8q-55 44 -92 115t-37 154q0 158 109 256t266 98q75 0 141 -25h346v-129h-205q37 -35 59.5 -89t22.5 -115q0 -156 -104 -251.5t-260 -95.5q-82 0 -150 35q-63 -56 -63 -119q0 -108 176 -108 h192q176 0 262.5 -57.5t86.5 -180.5q0 -143 -139.5 -243.5t-364.5 -100.5q-187 0 -299.5 71t-112.5 198zM240 -168q0 -80 77 -127t211 -47q138 0 227 61t89 142q0 67 -50 95t-151 28h-172q-72 0 -129 16q-102 -72 -102 -168zM240 1231v117h501v-117h-501zM293 666 q0 -106 61 -172t150 -66t150 66t61 172t-60 168.5t-151 62.5t-151 -62.5t-60 -168.5z" />
<glyph unicode="&#x1e24;" horiz-adv-x="1335" d="M184 0v1343h170v-563h625v563h172v-1343h-172v633h-625v-633h-170zM555 -311q0 47 31.5 77.5t79.5 30.5q49 0 80.5 -30.5t31.5 -77.5q0 -49 -31 -80t-81 -31q-48 0 -79.5 31t-31.5 80z" />
<glyph unicode="&#x1e25;" horiz-adv-x="1114" d="M168 0v1458h168v-397l-6 -205q82 78 160 121t172 43q303 0 303 -389v-631h-168v608q0 139 -45.5 202.5t-143.5 63.5q-72 0 -131 -35.5t-141 -117.5v-721h-168zM475 -311q0 47 31.5 77.5t79.5 30.5q47 0 78.5 -30.5t31.5 -77.5q0 -49 -31 -80t-79 -31t-79.5 31t-31.5 80z " />
<glyph unicode="&#x1e2a;" horiz-adv-x="1335" d="M184 0v1343h170v-563h625v563h172v-1343h-172v633h-625v-633h-170zM408 -162h104q8 -65 48 -110t106 -45q67 0 106 44.5t49 110.5h105q-4 -48 -20.5 -92t-46.5 -83t-80 -62t-113 -23q-62 0 -111.5 23t-79.5 62t-46.5 83t-20.5 92z" />
<glyph unicode="&#x1e2b;" horiz-adv-x="1114" d="M168 0v1458h168v-397l-6 -205q82 78 160 121t172 43q303 0 303 -389v-631h-168v608q0 139 -45.5 202.5t-143.5 63.5q-72 0 -131 -35.5t-141 -117.5v-721h-168zM326 -162h104q8 -66 47 -110.5t107 -44.5q67 0 106 44.5t49 110.5h105q-4 -48 -20.5 -92t-46.5 -83t-80 -62 t-113 -23t-113 23t-79.5 62t-46 83t-19.5 92z" />
<glyph unicode="&#x1e34;" horiz-adv-x="1185" d="M184 0v1343h170v-673h6l560 673h192l-420 -512l486 -831h-191l-401 698l-232 -272v-426h-170zM412 -231h506v-119h-506v119z" />
<glyph unicode="&#x1e35;" horiz-adv-x="1013" d="M168 0v1458h166v-987h6l424 524h186l-334 -399l379 -596h-184l-291 479l-186 -217v-262h-166zM301 -231h506v-119h-506v119z" />
<glyph unicode="&#x1e36;" horiz-adv-x="995" d="M184 0v1343h170v-1198h588v-145h-758zM479 -311q0 47 31.5 77.5t79.5 30.5q47 0 78.5 -30.5t31.5 -77.5q0 -49 -31 -80t-79 -31t-79.5 31t-31.5 80z" />
<glyph unicode="&#x1e37;" horiz-adv-x="522" d="M168 201v1257h168v-1270q0 -37 13 -55t34 -18q19 0 37 4l22 -127q-39 -17 -96 -17q-93 0 -135.5 57t-42.5 169zM238 -311q0 47 31.5 77.5t78.5 30.5q48 0 79.5 -30.5t31.5 -77.5q0 -49 -31.5 -80t-79.5 -31t-79 31t-31 80z" />
<glyph unicode="&#x1e38;" horiz-adv-x="995" d="M20 1493v117h508v-117h-508zM184 0v1343h170v-1198h588v-145h-758zM479 -311q0 47 31.5 77.5t79.5 30.5q47 0 78.5 -30.5t31.5 -77.5q0 -49 -31 -80t-79 -31t-79.5 31t-31.5 80z" />
<glyph unicode="&#x1e39;" horiz-adv-x="522" d="M0 1681v119h502v-119h-502zM168 201v1257h168v-1270q0 -37 13 -55t34 -18q19 0 37 4l22 -127q-39 -17 -96 -17q-93 0 -135.5 57t-42.5 169zM238 -311q0 47 31.5 77.5t78.5 30.5q48 0 79.5 -30.5t31.5 -77.5q0 -49 -31.5 -80t-79.5 -31t-79 31t-31 80z" />
<glyph unicode="&#x1e3a;" horiz-adv-x="995" d="M184 0v1343h170v-1198h588v-145h-758zM336 -231h504v-119h-504v119z" />
<glyph unicode="&#x1e3b;" horiz-adv-x="522" d="M94 -231h506v-119h-506v119zM168 201v1257h168v-1270q0 -37 13 -55t34 -18q19 0 37 4l22 -127q-39 -17 -96 -17q-93 0 -135.5 57t-42.5 169z" />
<glyph unicode="&#x1e42;" horiz-adv-x="1488" d="M184 0v1343h201l260 -720l98 -275h9l94 275l258 720h201v-1343h-162v739q0 136 22 398h-8l-108 -299l-258 -703h-97l-260 703l-106 299h-9q1 -19 8.5 -117.5t11 -162.5t3.5 -118v-739h-158zM637 -311q0 47 31 77.5t80 30.5q47 0 78.5 -30.5t31.5 -77.5q0 -49 -31 -80 t-79 -31q-50 0 -80.5 31t-30.5 80z" />
<glyph unicode="&#x1e43;" horiz-adv-x="1697" d="M168 0v995h139l15 -143h6q154 168 309 168q208 0 274 -191q85 93 164 142t164 49q303 0 303 -389v-631h-168v608q0 138 -45 202t-139 64q-112 0 -250 -153v-721h-168v608q0 139 -45 202.5t-141 63.5q-112 0 -250 -153v-721h-168zM762 -311q0 47 31.5 77.5t78.5 30.5 q49 0 80 -30.5t31 -77.5q0 -49 -30.5 -80t-80.5 -31q-48 0 -79 31t-31 80z" />
<glyph unicode="&#x1e44;" horiz-adv-x="1325" d="M184 0v1343h176l486 -843l145 -279h8q-20 337 -20 428v694h162v-1343h-176l-488 846l-145 276h-8q22 -297 22 -420v-702h-162zM553 1573q0 47 33.5 77.5t83.5 30.5t82 -30.5t32 -77.5q0 -49 -32 -80t-82 -31t-83.5 31t-33.5 80z" />
<glyph unicode="&#x1e45;" horiz-adv-x="1120" d="M168 0v995h139l15 -143h6q80 80 159.5 124t174.5 44q303 0 303 -389v-631h-168v608q0 139 -45.5 202.5t-143.5 63.5q-72 0 -131 -35.5t-141 -117.5v-721h-168zM487 1311q0 47 32 78.5t79 31.5t79 -31.5t32 -78.5q0 -49 -31.5 -80t-79.5 -31t-79.5 31t-31.5 80z" />
<glyph unicode="&#x1e46;" horiz-adv-x="1325" d="M184 0v1343h176l486 -843l145 -279h8q-20 337 -20 428v694h162v-1343h-176l-488 846l-145 276h-8q22 -297 22 -420v-702h-162zM561 -311q0 47 31.5 77.5t79.5 30.5q47 0 78.5 -30.5t31.5 -77.5q0 -49 -31 -80t-79 -31t-79.5 31t-31.5 80z" />
<glyph unicode="&#x1e47;" horiz-adv-x="1120" d="M168 0v995h139l15 -143h6q80 80 159.5 124t174.5 44q303 0 303 -389v-631h-168v608q0 139 -45.5 202.5t-143.5 63.5q-72 0 -131 -35.5t-141 -117.5v-721h-168zM461 -311q0 47 31.5 77.5t80.5 30.5q48 0 79.5 -30.5t31.5 -77.5q0 -49 -31.5 -80t-79.5 -31q-50 0 -81 31 t-31 80z" />
<glyph unicode="&#x1e48;" horiz-adv-x="1325" d="M184 0v1343h176l486 -843l145 -279h8q-20 337 -20 428v694h162v-1343h-176l-488 846l-145 276h-8q22 -297 22 -420v-702h-162zM418 -231h504v-119h-504v119z" />
<glyph unicode="&#x1e49;" horiz-adv-x="1120" d="M168 0v995h139l15 -143h6q80 80 159.5 124t174.5 44q303 0 303 -389v-631h-168v608q0 139 -45.5 202.5t-143.5 63.5q-72 0 -131 -35.5t-141 -117.5v-721h-168zM317 -231h504v-119h-504v119z" />
<glyph unicode="&#x1e52;" horiz-adv-x="1359" d="M106 678q0 318 158.5 504t415.5 186t416 -186.5t159 -503.5q0 -321 -159.5 -512t-415.5 -191t-415 191t-159 512zM283 678q0 -252 108.5 -402.5t288.5 -150.5t288.5 150.5t108.5 402.5q0 249 -108 395t-289 146t-289 -146t-108 -395zM422 1493v117h508v-117h-508z M569 1718l185 228h186l-231 -228h-140z" />
<glyph unicode="&#x1e53;" horiz-adv-x="1110" d="M94 496q0 122 37.5 222.5t101.5 165.5t147 100.5t175 35.5t175 -35.5t147 -100.5t101.5 -165.5t37.5 -222.5q0 -120 -37.5 -220t-101.5 -165t-147 -100.5t-175 -35.5t-175 35.5t-147 100.5t-101.5 165t-37.5 220zM268 496q0 -170 79.5 -275.5t207.5 -105.5 q129 0 208 105.5t79 275.5q0 172 -79 278.5t-208 106.5q-128 0 -207.5 -106.5t-79.5 -278.5zM305 1231v117h502v-117h-502zM449 1475l165 211h164l-213 -211h-116z" />
<glyph unicode="&#x1e5a;" horiz-adv-x="1189" d="M184 0v1343h420q471 0 471 -376q0 -153 -80 -249.5t-221 -131.5l340 -586h-192l-324 567h-244v-567h-170zM354 707h226q158 0 241.5 65.5t83.5 194.5q0 128 -81 183.5t-244 55.5h-226v-499zM522 -311q0 47 31.5 77.5t79.5 30.5q49 0 79.5 -30t30.5 -78q0 -50 -30.5 -80.5 t-79.5 -30.5q-48 0 -79.5 31t-31.5 80z" />
<glyph unicode="&#x1e5b;" horiz-adv-x="710" d="M139 -311q0 47 31.5 77.5t79.5 30.5q47 0 78.5 -30.5t31.5 -77.5q0 -49 -31 -80t-79 -31t-79.5 31t-31.5 80zM168 0v995h139l15 -180h6q52 96 125.5 150.5t156.5 54.5q58 0 107 -21l-33 -147q-53 16 -96 16q-69 0 -136.5 -55.5t-115.5 -173.5v-639h-168z" />
<glyph unicode="&#x1e5c;" horiz-adv-x="1189" d="M184 0v1343h420q471 0 471 -376q0 -153 -80 -249.5t-221 -131.5l340 -586h-192l-324 567h-244v-567h-170zM348 1493v117h508v-117h-508zM354 707h226q158 0 241.5 65.5t83.5 194.5q0 128 -81 183.5t-244 55.5h-226v-499zM522 -311q0 47 31.5 77.5t79.5 30.5 q49 0 79.5 -30t30.5 -78q0 -50 -30.5 -80.5t-79.5 -30.5q-48 0 -79.5 31t-31.5 80z" />
<glyph unicode="&#x1e5d;" horiz-adv-x="710" d="M139 -311q0 47 31.5 77.5t79.5 30.5q47 0 78.5 -30.5t31.5 -77.5q0 -49 -31 -80t-79 -31t-79.5 31t-31.5 80zM168 0v995h139l15 -180h6q52 96 125.5 150.5t156.5 54.5q58 0 107 -21l-33 -147q-53 16 -96 16q-69 0 -136.5 -55.5t-115.5 -173.5v-639h-168zM195 1231v117 h501v-117h-501z" />
<glyph unicode="&#x1e5e;" horiz-adv-x="1189" d="M184 0v1343h420q471 0 471 -376q0 -153 -80 -249.5t-221 -131.5l340 -586h-192l-324 567h-244v-567h-170zM354 707h226q158 0 241.5 65.5t83.5 194.5q0 128 -81 183.5t-244 55.5h-226v-499zM381 -231h504v-119h-504v119z" />
<glyph unicode="&#x1e5f;" horiz-adv-x="710" d="M-6 -231h506v-119h-506v119zM168 0v995h139l15 -180h6q52 96 125.5 150.5t156.5 54.5q58 0 107 -21l-33 -147q-53 16 -96 16q-69 0 -136.5 -55.5t-115.5 -173.5v-639h-168z" />
<glyph unicode="&#x1e60;" horiz-adv-x="1093" d="M86 174l102 119q74 -77 171.5 -122.5t199.5 -45.5q131 0 206 60t75 159q0 40 -12.5 72.5t-28.5 53.5t-50.5 43.5t-59 34.5t-73.5 34l-192 84q-272 114 -272 346q0 154 119 255t302 101q116 0 219.5 -45t178.5 -121l-92 -110q-134 127 -306 127q-113 0 -181 -53.5 t-68 -143.5q0 -37 14.5 -69t32 -52t53.5 -41.5t58 -32t65 -28.5l190 -82q64 -28 110 -57.5t86 -72t60.5 -100t20.5 -129.5q0 -164 -125 -273.5t-332 -109.5q-138 0 -259.5 53t-211.5 146zM455 1573q0 47 33 77.5t83 30.5t83.5 -30.5t33.5 -77.5q0 -49 -33.5 -80t-83.5 -31 t-83 31t-33 80z" />
<glyph unicode="&#x1e61;" horiz-adv-x="858" d="M57 113l84 112q71 -58 140.5 -88.5t152.5 -30.5q94 0 145.5 44t51.5 112q0 29 -14.5 55t-33 43.5t-54 36t-59.5 28.5t-67 26q-51 18 -86 33t-78.5 41t-69.5 53.5t-44.5 69t-18.5 89.5q0 123 92.5 203t250.5 80q168 0 309 -113l-80 -106q-117 88 -227 88q-89 0 -136 -41.5 t-47 -102.5q0 -32 16 -57.5t45.5 -43.5t63.5 -33t76 -31q4 -1 5.5 -1.5l4.5 -1.5t5.5 -2t4.5 -2q41 -15 62.5 -23.5t59 -26t59 -32t48.5 -38.5t41 -49t24 -59t10 -73q0 -127 -97 -212t-268 -85q-101 0 -199 38t-172 100zM340 1311q0 47 32 78.5t79 31.5t78.5 -31.5 t31.5 -78.5q0 -49 -31 -80t-79 -31t-79.5 31t-31.5 80z" />
<glyph unicode="&#x1e62;" horiz-adv-x="1093" d="M86 174l102 119q74 -77 171.5 -122.5t199.5 -45.5q131 0 206 60t75 159q0 40 -12.5 72.5t-28.5 53.5t-50.5 43.5t-59 34.5t-73.5 34l-192 84q-272 114 -272 346q0 154 119 255t302 101q116 0 219.5 -45t178.5 -121l-92 -110q-134 127 -306 127q-113 0 -181 -53.5 t-68 -143.5q0 -37 14.5 -69t32 -52t53.5 -41.5t58 -32t65 -28.5l190 -82q64 -28 110 -57.5t86 -72t60.5 -100t20.5 -129.5q0 -164 -125 -273.5t-332 -109.5q-138 0 -259.5 53t-211.5 146zM446 -311q0 47 32 77.5t81 30.5q48 0 79.5 -30.5t31.5 -77.5q0 -49 -31.5 -80 t-79.5 -31q-50 0 -81.5 31t-31.5 80z" />
<glyph unicode="&#x1e63;" horiz-adv-x="858" d="M57 113l84 112q71 -58 140.5 -88.5t152.5 -30.5q94 0 145.5 44t51.5 112q0 29 -14.5 55t-33 43.5t-54 36t-59.5 28.5t-67 26q-51 18 -86 33t-78.5 41t-69.5 53.5t-44.5 69t-18.5 89.5q0 123 92.5 203t250.5 80q168 0 309 -113l-80 -106q-117 88 -227 88q-89 0 -136 -41.5 t-47 -102.5q0 -32 16 -57.5t45.5 -43.5t63.5 -33t76 -31q4 -1 5.5 -1.5l4.5 -1.5t5.5 -2t4.5 -2q41 -15 62.5 -23.5t59 -26t59 -32t48.5 -38.5t41 -49t24 -59t10 -73q0 -127 -97 -212t-268 -85q-101 0 -199 38t-172 100zM346 -311q0 47 31.5 77.5t79.5 30.5q49 0 79.5 -30 t30.5 -78q0 -50 -30.5 -80.5t-79.5 -30.5q-48 0 -79.5 31t-31.5 80z" />
<glyph unicode="&#x1e6c;" horiz-adv-x="1097" d="M57 1200v143h983v-143h-405v-1200h-172v1200h-406zM440 -311q0 47 31 77.5t80 30.5q48 0 79.5 -30.5t31.5 -77.5q0 -49 -31.5 -80t-79.5 -31q-49 0 -80 31t-31 80z" />
<glyph unicode="&#x1e6d;" horiz-adv-x="692" d="M49 858v127l156 10l20 279h142v-279h268v-137h-268v-553q0 -97 35 -144.5t118 -47.5q42 0 113 26l33 -127q-113 -37 -185 -37q-152 0 -218 87t-66 245v551h-148zM328 -311q0 48 30.5 78t79.5 30q48 0 79.5 -30.5t31.5 -77.5q0 -49 -31.5 -80t-79.5 -31q-49 0 -79.5 30.5 t-30.5 80.5z" />
<glyph unicode="&#x1e6e;" horiz-adv-x="1097" d="M57 1200v143h983v-143h-405v-1200h-172v1200h-406zM297 -231h504v-119h-504v119z" />
<glyph unicode="&#x1e6f;" horiz-adv-x="692" d="M49 858v127l156 10l20 279h142v-279h268v-137h-268v-553q0 -97 35 -144.5t118 -47.5q42 0 113 26l33 -127q-113 -37 -185 -37q-152 0 -218 87t-66 245v551h-148zM182 -231h506v-119h-506v119z" />
<glyph unicode="&#x1e80;" horiz-adv-x="1609" d="M47 1343h176l142 -731q12 -73 38 -217t39 -217h9l94 434l186 731h156l186 -731l98 -434h9q73 423 75 434l142 731h164l-279 -1343h-205l-203 809q-32 132 -65 305h-8q-12 -62 -38.5 -176t-29.5 -129l-198 -809h-203zM537 1675h192l180 -229h-141z" />
<glyph unicode="&#x1e81;" horiz-adv-x="1470" d="M49 995h172l148 -575q24 -98 59 -277h8q6 25 29.5 124.5t38.5 152.5l153 575h164l156 -575l70 -277h8q14 55 61 277l146 575h159l-266 -995h-205l-143 535q-14 51 -35.5 147.5t-32.5 138.5h-8q-56 -245 -69 -289l-140 -532h-196zM510 1462h176l184 -288h-129z" />
<glyph unicode="&#x1e82;" horiz-adv-x="1609" d="M47 1343h176l142 -731q12 -73 38 -217t39 -217h9l94 434l186 731h156l186 -731l98 -434h9q73 423 75 434l142 731h164l-279 -1343h-205l-203 809q-32 132 -65 305h-8q-12 -62 -38.5 -176t-29.5 -129l-198 -809h-203zM700 1446l181 229h192l-231 -229h-142z" />
<glyph unicode="&#x1e83;" horiz-adv-x="1470" d="M49 995h172l148 -575q24 -98 59 -277h8q6 25 29.5 124.5t38.5 152.5l153 575h164l156 -575l70 -277h8q14 55 61 277l146 575h159l-266 -995h-205l-143 535q-14 51 -35.5 147.5t-32.5 138.5h-8q-56 -245 -69 -289l-140 -532h-196zM604 1174l184 288h177l-232 -288h-129z " />
<glyph unicode="&#x1e84;" horiz-adv-x="1609" d="M47 1343h176l142 -731q12 -73 38 -217t39 -217h9l94 434l186 731h156l186 -731l98 -434h9q73 423 75 434l142 731h164l-279 -1343h-205l-203 809q-32 132 -65 305h-8q-12 -62 -38.5 -176t-29.5 -129l-198 -809h-203zM528 1565q0 44 28.5 72t72.5 28q43 0 71.5 -28 t28.5 -72q0 -43 -28.5 -72t-71.5 -29q-44 0 -72.5 29t-28.5 72zM881 1565q0 44 28.5 72t71.5 28q44 0 72 -28t28 -72q0 -43 -28 -72t-72 -29q-43 0 -71.5 29t-28.5 72z" />
<glyph unicode="&#x1e85;" horiz-adv-x="1470" d="M49 995h172l148 -575q24 -98 59 -277h8q6 25 29.5 124.5t38.5 152.5l153 575h164l156 -575l70 -277h8q14 55 61 277l146 575h159l-266 -995h-205l-143 535q-14 51 -35.5 147.5t-32.5 138.5h-8q-56 -245 -69 -289l-140 -532h-196zM461 1305q0 43 28.5 71.5t71.5 28.5 t72 -28.5t29 -71.5t-29 -72t-72 -29t-71.5 29t-28.5 72zM815 1305q0 43 27.5 71.5t70.5 28.5q44 0 72.5 -28.5t28.5 -71.5t-28.5 -72t-72.5 -29q-42 0 -70 29t-28 72z" />
<glyph unicode="&#x1e8e;" horiz-adv-x="974" d="M-2 1343h182l174 -378l129 -293h9q113 241 135 293l172 378h178l-404 -823v-520h-172v520zM371 1573q0 47 33 77.5t83 30.5t83.5 -30.5t33.5 -77.5q0 -49 -33.5 -80t-83.5 -31t-83 31t-33 80z" />
<glyph unicode="&#x1e8f;" horiz-adv-x="956" d="M25 995h174l202 -551q41 -113 97 -280h8q16 51 45 150t39 130l178 551h164l-375 -1077q-28 -79 -60 -138t-76.5 -108t-104 -74.5t-132.5 -25.5q-61 0 -116 20l32 134q50 -15 76 -15q154 0 225 213l23 74zM387 1311q0 47 32 78.5t79 31.5t78.5 -31.5t31.5 -78.5 q0 -49 -31 -80t-79 -31t-79.5 31t-31.5 80z" />
<glyph unicode="&#x1e92;" horiz-adv-x="1103" d="M92 0v102l707 1098h-643v143h856v-100l-709 -1098h715v-145h-926zM465 -311q0 47 31.5 77.5t78.5 30.5q49 0 80 -30.5t31 -77.5q0 -49 -31 -80t-80 -31q-48 0 -79 31t-31 80z" />
<glyph unicode="&#x1e93;" horiz-adv-x="870" d="M63 0v90l525 768h-467v137h680v-90l-525 -768h541v-137h-754zM356 -311q0 47 31.5 77.5t79.5 30.5t79.5 -30.5t31.5 -77.5q0 -49 -31.5 -80t-79.5 -31t-79.5 31t-31.5 80z" />
<glyph unicode="&#x1e97;" horiz-adv-x="692" d="M18 1583q0 42 28.5 71t70.5 29q44 0 72 -29t28 -71q0 -43 -28 -71.5t-72 -28.5q-43 0 -71 28.5t-28 71.5zM49 858v127l156 10l20 279h142v-279h268v-137h-268v-553q0 -97 35 -144.5t118 -47.5q42 0 113 26l33 -127q-113 -37 -185 -37q-152 0 -218 87t-66 245v551h-148z M371 1583q0 42 29 71t71 29t71 -29t29 -71q0 -43 -28.5 -71.5t-71.5 -28.5t-71.5 28.5t-28.5 71.5z" />
<glyph unicode="&#x1e9e;" horiz-adv-x="1366" d="M186 0v854q0 240 138.5 377t386.5 137q164 0 275 -83t169 -232l-283 -312q406 -81 406 -391q0 -162 -107.5 -268.5t-281.5 -106.5q-114 0 -209.5 42t-161.5 114l98 111q112 -123 258 -123q106 0 167 64t61 167q0 50 -18.5 91t-61.5 78.5t-122 67t-193 48.5l-11 110 l281 314q-37 75 -105.5 121.5t-166.5 46.5q-167 0 -257 -100.5t-90 -303.5v-823h-172z" />
<glyph unicode="&#x1ea0;" horiz-adv-x="1114" d="M6 0l455 1343h192l455 -1343h-182l-127 410h-490l-129 -410h-174zM352 547h404l-64 205q-67 204 -135 452h-8q-60 -230 -133 -452zM442 -311q0 47 31.5 77.5t79.5 30.5q49 0 80 -30.5t31 -77.5q0 -49 -31 -80t-80 -31q-48 0 -79.5 31t-31.5 80z" />
<glyph unicode="&#x1ea1;" horiz-adv-x="1048" d="M119 258q0 162 146 250t466 123q0 51 -9.5 93t-31.5 79t-64 57.5t-100 20.5q-140 0 -297 -107l-67 117q201 129 391 129q177 0 261.5 -108t84.5 -302v-610h-139l-15 119h-4q-177 -144 -329 -144q-129 0 -211 76t-82 207zM285 270q0 -81 48 -120t126 -39q69 0 132.5 32.5 t139.5 100.5v276q-242 -30 -344 -90.5t-102 -159.5zM408 -311q0 47 31.5 77.5t78.5 30.5q48 0 79.5 -30.5t31.5 -77.5q0 -49 -31.5 -80t-79.5 -31t-79 31t-31 80z" />
<glyph unicode="&#x1ea2;" horiz-adv-x="1114" d="M6 0l455 1343h192l455 -1343h-182l-127 410h-490l-129 -410h-174zM352 547h404l-64 205q-67 204 -135 452h-8q-60 -230 -133 -452zM422 1688l18 98q135 -5 209 -47t74 -119q0 -152 -227 -190l-19 77q115 31 115 95q0 80 -170 86z" />
<glyph unicode="&#x1ea3;" horiz-adv-x="1048" d="M119 258q0 162 146 250t466 123q0 51 -9.5 93t-31.5 79t-64 57.5t-100 20.5q-140 0 -297 -107l-67 117q201 129 391 129q177 0 261.5 -108t84.5 -302v-610h-139l-15 119h-4q-177 -144 -329 -144q-129 0 -211 76t-82 207zM285 270q0 -81 48 -120t126 -39q69 0 132.5 32.5 t139.5 100.5v276q-242 -30 -344 -90.5t-102 -159.5zM420 1391l18 98q135 -5 209 -47t74 -119q0 -152 -227 -190l-19 77q115 31 115 95q0 80 -170 86z" />
<glyph unicode="&#x1ea4;" horiz-adv-x="1114" d="M6 0l455 1343h192l455 -1343h-182l-127 410h-490l-129 -410h-174zM291 1446l188 217h148l190 -217h-131l-129 127h-8l-129 -127h-129zM352 547h404l-64 205q-67 204 -135 452h-8q-60 -230 -133 -452zM741 1577l144 227h147l-186 -227h-105z" />
<glyph unicode="&#x1ea5;" horiz-adv-x="1048" d="M119 258q0 162 146 250t466 123q0 51 -9.5 93t-31.5 79t-64 57.5t-100 20.5q-140 0 -297 -107l-67 117q201 129 391 129q177 0 261.5 -108t84.5 -302v-610h-139l-15 119h-4q-177 -144 -329 -144q-129 0 -211 76t-82 207zM285 270q0 -81 48 -120t126 -39q69 0 132.5 32.5 t139.5 100.5v276q-242 -30 -344 -90.5t-102 -159.5zM313 1174l168 243h140l170 -243h-115l-121 149h-8l-119 -149h-115zM733 1311l152 233h141l-188 -233h-105z" />
<glyph unicode="&#x1ea6;" horiz-adv-x="1114" d="M6 0l455 1343h192l455 -1343h-182l-127 410h-490l-129 -410h-174zM291 1446l188 217h148l190 -217h-131l-129 127h-8l-129 -127h-129zM352 547h404l-64 205q-67 204 -135 452h-8q-60 -230 -133 -452zM639 1804h147l144 -227h-107z" />
<glyph unicode="&#x1ea7;" horiz-adv-x="1048" d="M119 258q0 162 146 250t466 123q0 51 -9.5 93t-31.5 79t-64 57.5t-100 20.5q-140 0 -297 -107l-67 117q201 129 391 129q177 0 261.5 -108t84.5 -302v-610h-139l-15 119h-4q-177 -144 -329 -144q-129 0 -211 76t-82 207zM285 270q0 -81 48 -120t126 -39q69 0 132.5 32.5 t139.5 100.5v276q-242 -30 -344 -90.5t-102 -159.5zM313 1174l168 243h140l170 -243h-115l-121 149h-8l-119 -149h-115zM670 1544h143l150 -233h-105z" />
<glyph unicode="&#x1ea8;" horiz-adv-x="1114" d="M6 0l455 1343h192l455 -1343h-182l-127 410h-490l-129 -410h-174zM291 1446l188 217h148l190 -217h-131l-129 127h-8l-129 -127h-129zM352 547h404l-64 205q-67 204 -135 452h-8q-60 -230 -133 -452zM715 1769l16 86q248 -9 248 -149q0 -131 -191 -162l-20 72 q90 22 90 74q0 39 -33 56.5t-110 22.5z" />
<glyph unicode="&#x1ea9;" horiz-adv-x="1048" d="M119 258q0 162 146 250t466 123q0 51 -9.5 93t-31.5 79t-64 57.5t-100 20.5q-140 0 -297 -107l-67 117q201 129 391 129q177 0 261.5 -108t84.5 -302v-610h-139l-15 119h-4q-177 -144 -329 -144q-129 0 -211 76t-82 207zM285 270q0 -81 48 -120t126 -39q69 0 132.5 32.5 t139.5 100.5v276q-242 -30 -344 -90.5t-102 -159.5zM313 1174l168 243h140l170 -243h-115l-121 149h-8l-119 -149h-115zM717 1522l14 84q248 -9 248 -150q0 -40 -15.5 -69.5t-45 -49t-59 -30.5t-71.5 -21l-18 72q88 24 88 80q0 40 -33 60t-108 24z" />
<glyph unicode="&#x1eaa;" horiz-adv-x="1114" d="M6 0l455 1343h192l455 -1343h-182l-127 410h-490l-129 -410h-174zM283 1733q8 85 50.5 137.5t110.5 52.5q42 0 80.5 -23t71 -46t59.5 -23q31 0 52.5 24.5t29.5 67.5h86q-8 -83 -50.5 -136.5t-110.5 -53.5q-42 0 -80.5 23t-71 46t-59.5 23q-31 0 -52.5 -24t-27.5 -68h-88z M291 1446l188 217h148l190 -217h-131l-129 127h-8l-129 -127h-129zM352 547h404l-64 205q-67 204 -135 452h-8q-60 -230 -133 -452z" />
<glyph unicode="&#x1eab;" horiz-adv-x="1048" d="M119 258q0 162 146 250t466 123q0 51 -9.5 93t-31.5 79t-64 57.5t-100 20.5q-140 0 -297 -107l-67 117q201 129 391 129q177 0 261.5 -108t84.5 -302v-610h-139l-15 119h-4q-177 -144 -329 -144q-129 0 -211 76t-82 207zM285 270q0 -81 48 -120t126 -39q69 0 132.5 32.5 t139.5 100.5v276q-242 -30 -344 -90.5t-102 -159.5zM285 1456q8 84 49 135t110 51q44 0 82 -22t69 -44t58 -22q65 0 80 88h86q-8 -84 -50.5 -135t-111.5 -51q-34 0 -65.5 14t-51 30t-44.5 30t-47 14q-30 0 -51.5 -22.5t-28.5 -65.5h-84zM297 1169l178 213h154l178 -213h-121 l-131 134h-8l-131 -134h-119z" />
<glyph unicode="&#x1eac;" horiz-adv-x="1114" d="M6 0l455 1343h192l455 -1343h-182l-127 410h-490l-129 -410h-174zM276 1446l197 229h162l196 -229h-137l-137 139h-8l-137 -139h-136zM352 547h404l-64 205q-67 204 -135 452h-8q-60 -230 -133 -452zM442 -311q0 47 31.5 77.5t79.5 30.5q49 0 80 -30.5t31 -77.5 q0 -49 -31 -80t-80 -31q-48 0 -79.5 31t-31.5 80z" />
<glyph unicode="&#x1ead;" horiz-adv-x="1048" d="M119 258q0 162 146 250t466 123q0 51 -9.5 93t-31.5 79t-64 57.5t-100 20.5q-140 0 -297 -107l-67 117q201 129 391 129q177 0 261.5 -108t84.5 -302v-610h-139l-15 119h-4q-177 -144 -329 -144q-129 0 -211 76t-82 207zM285 270q0 -81 48 -120t126 -39q69 0 132.5 32.5 t139.5 100.5v276q-242 -30 -344 -90.5t-102 -159.5zM289 1174l192 288h140l194 -288h-123l-137 186h-8l-137 -186h-121zM408 -311q0 47 31.5 77.5t78.5 30.5q48 0 79.5 -30.5t31.5 -77.5q0 -49 -31.5 -80t-79.5 -31t-79 31t-31 80z" />
<glyph unicode="&#x1eae;" horiz-adv-x="1114" d="M6 0l455 1343h192l455 -1343h-182l-127 410h-490l-129 -410h-174zM305 1669h90q30 -131 158 -131q130 0 160 131h90q-12 -93 -75 -156t-175 -63q-111 0 -174.5 63t-73.5 156zM352 547h404l-64 205q-67 204 -135 452h-8q-60 -230 -133 -452zM475 1642l150 216h147 l-199 -216h-98z" />
<glyph unicode="&#x1eaf;" horiz-adv-x="1048" d="M119 258q0 162 146 250t466 123q0 51 -9.5 93t-31.5 79t-64 57.5t-100 20.5q-140 0 -297 -107l-67 117q201 129 391 129q177 0 261.5 -108t84.5 -302v-610h-139l-15 119h-4q-177 -144 -329 -144q-129 0 -211 76t-82 207zM285 270q0 -81 48 -120t126 -39q69 0 132.5 32.5 t139.5 100.5v276q-242 -30 -344 -90.5t-102 -159.5zM293 1438h90q10 -70 52.5 -117t115.5 -47t116.5 47.5t53.5 116.5h90q-4 -48 -20.5 -92t-46.5 -83t-80 -62t-113 -23t-113 23t-79.5 62t-46 83t-19.5 92zM475 1386l139 230h140l-181 -230h-98z" />
<glyph unicode="&#x1eb0;" horiz-adv-x="1114" d="M6 0l455 1343h192l455 -1343h-182l-127 410h-490l-129 -410h-174zM305 1669h90q30 -131 158 -131q130 0 160 131h90q-12 -93 -75 -156t-175 -63q-111 0 -174.5 63t-73.5 156zM336 1858h145l152 -216h-101zM352 547h404l-64 205q-67 204 -135 452h-8q-60 -230 -133 -452z " />
<glyph unicode="&#x1eb1;" horiz-adv-x="1048" d="M119 258q0 162 146 250t466 123q0 51 -9.5 93t-31.5 79t-64 57.5t-100 20.5q-140 0 -297 -107l-67 117q201 129 391 129q177 0 261.5 -108t84.5 -302v-610h-139l-15 119h-4q-177 -144 -329 -144q-129 0 -211 76t-82 207zM285 270q0 -81 48 -120t126 -39q69 0 132.5 32.5 t139.5 100.5v276q-242 -30 -344 -90.5t-102 -159.5zM293 1438h90q10 -70 52.5 -117t115.5 -47t116.5 47.5t53.5 116.5h90q-4 -48 -20.5 -92t-46.5 -83t-80 -62t-113 -23t-113 23t-79.5 62t-46 83t-19.5 92zM348 1616h141l140 -230h-101z" />
<glyph unicode="&#x1eb2;" horiz-adv-x="1114" d="M6 0l455 1343h192l455 -1343h-182l-127 410h-490l-129 -410h-174zM305 1669h90q30 -131 158 -131q130 0 160 131h90q-12 -93 -75 -156t-175 -63q-111 0 -174.5 63t-73.5 156zM352 547h404l-64 205q-67 204 -135 452h-8q-60 -230 -133 -452zM432 1864l17 86 q247 -9 247 -150q0 -131 -188 -162l-23 72q90 21 90 74q0 39 -33.5 57t-109.5 23z" />
<glyph unicode="&#x1eb3;" horiz-adv-x="1048" d="M119 258q0 162 146 250t466 123q0 51 -9.5 93t-31.5 79t-64 57.5t-100 20.5q-140 0 -297 -107l-67 117q201 129 391 129q177 0 261.5 -108t84.5 -302v-610h-139l-15 119h-4q-177 -144 -329 -144q-129 0 -211 76t-82 207zM285 270q0 -81 48 -120t126 -39q69 0 132.5 32.5 t139.5 100.5v276q-242 -30 -344 -90.5t-102 -159.5zM293 1438h90q10 -70 52.5 -117t115.5 -47t116.5 47.5t53.5 116.5h90q-4 -48 -20.5 -92t-46.5 -83t-80 -62t-113 -23t-113 23t-79.5 62t-46 83t-19.5 92zM424 1634l14 84q250 -6 250 -149q0 -39 -15.5 -69t-44.5 -49 t-59 -30.5t-71 -21.5l-19 71q86 24 86 80q0 40 -33.5 60.5t-107.5 23.5z" />
<glyph unicode="&#x1eb4;" horiz-adv-x="1114" d="M6 0l455 1343h192l455 -1343h-182l-127 410h-490l-129 -410h-174zM283 1733q8 85 50.5 137.5t110.5 52.5q42 0 80.5 -23t71 -46t59.5 -23q31 0 52.5 24.5t29.5 67.5h86q-8 -83 -50.5 -136.5t-110.5 -53.5q-42 0 -80.5 23t-71 46t-59.5 23q-31 0 -52.5 -24t-27.5 -68h-88z M305 1669h90q30 -131 158 -131q130 0 160 131h90q-12 -93 -75 -156t-175 -63q-111 0 -174.5 63t-73.5 156zM352 547h404l-64 205q-67 204 -135 452h-8q-60 -230 -133 -452z" />
<glyph unicode="&#x1eb5;" horiz-adv-x="1048" d="M119 258q0 162 146 250t466 123q0 51 -9.5 93t-31.5 79t-64 57.5t-100 20.5q-140 0 -297 -107l-67 117q201 129 391 129q177 0 261.5 -108t84.5 -302v-610h-139l-15 119h-4q-177 -144 -329 -144q-129 0 -211 76t-82 207zM285 270q0 -81 48 -120t126 -39q69 0 132.5 32.5 t139.5 100.5v276q-242 -30 -344 -90.5t-102 -159.5zM285 1456q8 84 49 135t110 51q44 0 82 -22t69 -44t58 -22q65 0 80 88h86q-8 -84 -50.5 -135t-111.5 -51q-34 0 -65.5 14t-51 30t-44.5 30t-47 14q-30 0 -51.5 -22.5t-28.5 -65.5h-84zM295 1397h92q10 -55 51 -91t113 -36 t113 36t51 91h92q-7 -92 -70 -155.5t-186 -63.5q-122 0 -185 63t-71 156z" />
<glyph unicode="&#x1eb6;" horiz-adv-x="1114" d="M6 0l455 1343h192l455 -1343h-182l-127 410h-490l-129 -410h-174zM301 1675h105q10 -55 46.5 -92t100.5 -37t101.5 37t47.5 92h103q-10 -95 -73.5 -160t-178.5 -65t-177.5 64.5t-74.5 160.5zM352 547h404l-64 205q-67 204 -135 452h-8q-60 -230 -133 -452zM442 -311 q0 47 31.5 77.5t79.5 30.5q49 0 80 -30.5t31 -77.5q0 -49 -31 -80t-80 -31q-48 0 -79.5 31t-31.5 80z" />
<glyph unicode="&#x1eb7;" horiz-adv-x="1048" d="M119 258q0 162 146 250t466 123q0 51 -9.5 93t-31.5 79t-64 57.5t-100 20.5q-140 0 -297 -107l-67 117q201 129 391 129q177 0 261.5 -108t84.5 -302v-610h-139l-15 119h-4q-177 -144 -329 -144q-129 0 -211 76t-82 207zM285 270q0 -81 48 -120t126 -39q69 0 132.5 32.5 t139.5 100.5v276q-242 -30 -344 -90.5t-102 -159.5zM293 1438h104q8 -66 47.5 -111t106.5 -45t106.5 45t47.5 111h106q-4 -48 -20.5 -92t-46.5 -83t-80 -62t-113 -23t-113 23t-79.5 62t-46 83t-19.5 92zM408 -311q0 47 31.5 77.5t78.5 30.5q48 0 79.5 -30.5t31.5 -77.5 q0 -49 -31.5 -80t-79.5 -31t-79 31t-31 80z" />
<glyph unicode="&#x1eb8;" horiz-adv-x="1079" d="M184 0v1343h774v-143h-604v-422h510v-145h-510v-488h625v-145h-795zM496 -311q0 47 31.5 77.5t78.5 30.5q48 0 79.5 -30.5t31.5 -77.5q0 -49 -31.5 -80t-79.5 -31t-79 31t-31 80z" />
<glyph unicode="&#x1eb9;" horiz-adv-x="1015" d="M94 496q0 118 38 218.5t100.5 166.5t142.5 102.5t166 36.5q188 0 292.5 -125.5t104.5 -341.5q0 -55 -6 -92h-672q9 -161 99 -255.5t233 -94.5q127 0 248 77l59 -110q-161 -103 -328 -103q-205 0 -341 141.5t-136 379.5zM258 571h533q0 152 -64.5 234t-181.5 82 q-109 0 -190.5 -85t-96.5 -231zM426 -311q0 47 32 77.5t81 30.5q47 0 78.5 -30.5t31.5 -77.5q0 -49 -31 -80t-79 -31q-50 0 -81.5 31t-31.5 80z" />
<glyph unicode="&#x1eba;" horiz-adv-x="1079" d="M184 0v1343h774v-143h-604v-422h510v-145h-510v-488h625v-145h-795zM451 1688l18 98q135 -5 209 -47t74 -119q0 -152 -228 -190l-18 77q115 31 115 95q0 80 -170 86z" />
<glyph unicode="&#x1ebb;" horiz-adv-x="1015" d="M94 496q0 118 38 218.5t100.5 166.5t142.5 102.5t166 36.5q188 0 292.5 -125.5t104.5 -341.5q0 -55 -6 -92h-672q9 -161 99 -255.5t233 -94.5q127 0 248 77l59 -110q-161 -103 -328 -103q-205 0 -341 141.5t-136 379.5zM258 571h533q0 152 -64.5 234t-181.5 82 q-109 0 -190.5 -85t-96.5 -231zM410 1391l18 98q135 -5 209 -47t74 -119q0 -152 -226 -190l-20 77q115 31 115 95q0 80 -170 86z" />
<glyph unicode="&#x1ebc;" horiz-adv-x="1079" d="M184 0v1343h774v-143h-604v-422h510v-145h-510v-488h625v-145h-795zM287 1456q8 98 54 159.5t118 61.5q37 0 73.5 -16.5t60.5 -36.5t54 -36.5t55 -16.5q31 0 53 27.5t29 78.5h95q-9 -97 -55.5 -159t-116.5 -62q-37 0 -73.5 16.5t-61 37t-54.5 37t-55 16.5 q-31 0 -53 -27.5t-31 -79.5h-92z" />
<glyph unicode="&#x1ebd;" horiz-adv-x="1015" d="M94 496q0 118 38 218.5t100.5 166.5t142.5 102.5t166 36.5q188 0 292.5 -125.5t104.5 -341.5q0 -55 -6 -92h-672q9 -161 99 -255.5t233 -94.5q127 0 248 77l59 -110q-161 -103 -328 -103q-205 0 -341 141.5t-136 379.5zM256 1186q10 98 52.5 157.5t115.5 59.5 q44 0 87.5 -26.5t80 -52.5t63.5 -26q58 0 76 105h96q-10 -98 -52.5 -157.5t-115.5 -59.5q-43 0 -86.5 26t-81 52t-65.5 26q-59 0 -74 -104h-96zM258 571h533q0 152 -64.5 234t-181.5 82q-109 0 -190.5 -85t-96.5 -231z" />
<glyph unicode="&#x1ebe;" horiz-adv-x="1079" d="M184 0v1343h774v-143h-604v-422h510v-145h-510v-488h625v-145h-795zM319 1446l189 217h147l191 -217h-131l-129 127h-8l-129 -127h-130zM770 1577l143 227h148l-187 -227h-104z" />
<glyph unicode="&#x1ebf;" horiz-adv-x="1015" d="M94 496q0 118 38 218.5t100.5 166.5t142.5 102.5t166 36.5q188 0 292.5 -125.5t104.5 -341.5q0 -55 -6 -92h-672q9 -161 99 -255.5t233 -94.5q127 0 248 77l59 -110q-161 -103 -328 -103q-205 0 -341 141.5t-136 379.5zM258 571h533q0 152 -64.5 234t-181.5 82 q-109 0 -190.5 -85t-96.5 -231zM303 1174l170 243h137l170 -243h-114l-121 149h-8l-119 -149h-115zM723 1311l151 233h142l-189 -233h-104z" />
<glyph unicode="&#x1ec0;" horiz-adv-x="1079" d="M184 0v1343h774v-143h-604v-422h510v-145h-510v-488h625v-145h-795zM319 1446l189 217h147l191 -217h-131l-129 127h-8l-129 -127h-130zM668 1804h147l143 -227h-106z" />
<glyph unicode="&#x1ec1;" horiz-adv-x="1015" d="M94 496q0 118 38 218.5t100.5 166.5t142.5 102.5t166 36.5q188 0 292.5 -125.5t104.5 -341.5q0 -55 -6 -92h-672q9 -161 99 -255.5t233 -94.5q127 0 248 77l59 -110q-161 -103 -328 -103q-205 0 -341 141.5t-136 379.5zM258 571h533q0 152 -64.5 234t-181.5 82 q-109 0 -190.5 -85t-96.5 -231zM303 1174l170 243h137l170 -243h-114l-121 149h-8l-119 -149h-115zM659 1544h144l149 -233h-104z" />
<glyph unicode="&#x1ec2;" horiz-adv-x="1079" d="M184 0v1343h774v-143h-604v-422h510v-145h-510v-488h625v-145h-795zM319 1446l189 217h147l191 -217h-131l-129 127h-8l-129 -127h-130zM743 1769l17 86q248 -9 248 -149q0 -131 -191 -162l-20 72q90 22 90 74q0 39 -33.5 56.5t-110.5 22.5z" />
<glyph unicode="&#x1ec3;" horiz-adv-x="1015" d="M94 496q0 118 38 218.5t100.5 166.5t142.5 102.5t166 36.5q188 0 292.5 -125.5t104.5 -341.5q0 -55 -6 -92h-672q9 -161 99 -255.5t233 -94.5q127 0 248 77l59 -110q-161 -103 -328 -103q-205 0 -341 141.5t-136 379.5zM258 571h533q0 152 -64.5 234t-181.5 82 q-109 0 -190.5 -85t-96.5 -231zM303 1174l170 243h137l170 -243h-114l-121 149h-8l-119 -149h-115zM707 1522l14 84q248 -9 248 -150q0 -40 -15.5 -69.5t-45 -49t-59 -30.5t-71.5 -21l-18 72q88 24 88 80q0 40 -33 60t-108 24z" />
<glyph unicode="&#x1ec4;" horiz-adv-x="1079" d="M184 0v1343h774v-143h-604v-422h510v-145h-510v-488h625v-145h-795zM311 1733q8 84 50.5 137t111.5 53q42 0 80.5 -23t71 -46t59.5 -23q31 0 52.5 24.5t29.5 67.5h86q-8 -83 -51 -136.5t-111 -53.5q-42 0 -80.5 23t-71 46t-59.5 23q-31 0 -52.5 -24t-27.5 -68h-88z M319 1446l189 217h147l191 -217h-131l-129 127h-8l-129 -127h-130z" />
<glyph unicode="&#x1ec5;" horiz-adv-x="1015" d="M94 496q0 118 38 218.5t100.5 166.5t142.5 102.5t166 36.5q188 0 292.5 -125.5t104.5 -341.5q0 -55 -6 -92h-672q9 -161 99 -255.5t233 -94.5q127 0 248 77l59 -110q-161 -103 -328 -103q-205 0 -341 141.5t-136 379.5zM258 571h533q0 152 -64.5 234t-181.5 82 q-109 0 -190.5 -85t-96.5 -231zM274 1456q8 84 49.5 135t110.5 51q44 0 82 -22t69 -44t58 -22q32 0 53 22.5t27 65.5h86q-8 -84 -49.5 -135t-110.5 -51q-35 0 -67 14t-52 30t-44 30t-46 14q-32 0 -53 -22.5t-27 -65.5h-86zM287 1169l178 213h153l179 -213h-119l-133 134h-8 l-131 -134h-119z" />
<glyph unicode="&#x1ec6;" horiz-adv-x="1079" d="M184 0v1343h774v-143h-604v-422h510v-145h-510v-488h625v-145h-795zM305 1446l197 229h162l196 -229h-137l-137 139h-8l-138 -139h-135zM496 -311q0 47 31.5 77.5t78.5 30.5q48 0 79.5 -30.5t31.5 -77.5q0 -49 -31.5 -80t-79.5 -31t-79 31t-31 80z" />
<glyph unicode="&#x1ec7;" horiz-adv-x="1015" d="M94 496q0 118 38 218.5t100.5 166.5t142.5 102.5t166 36.5q188 0 292.5 -125.5t104.5 -341.5q0 -55 -6 -92h-672q9 -161 99 -255.5t233 -94.5q127 0 248 77l59 -110q-161 -103 -328 -103q-205 0 -341 141.5t-136 379.5zM258 571h533q0 152 -64.5 234t-181.5 82 q-109 0 -190.5 -85t-96.5 -231zM279 1174l194 288h137l195 -288h-123l-137 186h-8l-138 -186h-120zM426 -311q0 47 31.5 77.5t79.5 30.5q47 0 78.5 -30.5t31.5 -77.5q0 -49 -31 -80t-79 -31t-79.5 31t-31.5 80z" />
<glyph unicode="&#x1ec8;" horiz-adv-x="538" d="M137 1688l19 98q136 -5 209 -47t73 -119q0 -152 -225 -190l-20 77q116 32 116 95q0 80 -172 86zM184 0v1343h170v-1343h-170z" />
<glyph unicode="&#x1ec9;" horiz-adv-x="503" d="M121 1391l18 98q135 -5 209 -47t74 -119q0 -152 -227 -190l-19 77q115 31 115 95q0 80 -170 86zM168 0v995h168v-995h-168z" />
<glyph unicode="&#x1eca;" horiz-adv-x="538" d="M160 -311q0 47 31.5 77.5t78.5 30.5q48 0 79.5 -30.5t31.5 -77.5q0 -49 -31.5 -80t-79.5 -31t-79 31t-31 80zM184 0v1343h170v-1343h-170z" />
<glyph unicode="&#x1ecb;" horiz-adv-x="503" d="M137 1309q0 49 33.5 78.5t83.5 29.5t83.5 -29.5t33.5 -78.5q0 -47 -33.5 -78t-83.5 -31t-83.5 31t-33.5 78zM143 -311q0 47 31.5 77.5t79.5 30.5t79.5 -30.5t31.5 -77.5q0 -49 -31.5 -80t-79.5 -31t-79.5 31t-31.5 80zM168 0v995h168v-995h-168z" />
<glyph unicode="&#x1ecc;" horiz-adv-x="1359" d="M106 678q0 318 158.5 504t415.5 186t416 -186.5t159 -503.5q0 -321 -159.5 -512t-415.5 -191t-415 191t-159 512zM283 678q0 -252 108.5 -402.5t288.5 -150.5t288.5 150.5t108.5 402.5q0 249 -108 395t-289 146t-289 -146t-108 -395zM569 -311q0 47 31.5 77.5t79.5 30.5 t79.5 -30.5t31.5 -77.5q0 -49 -31.5 -80t-79.5 -31t-79.5 31t-31.5 80z" />
<glyph unicode="&#x1ecd;" horiz-adv-x="1110" d="M94 496q0 122 37.5 222.5t101.5 165.5t147 100.5t175 35.5t175 -35.5t147 -100.5t101.5 -165.5t37.5 -222.5q0 -120 -37.5 -220t-101.5 -165t-147 -100.5t-175 -35.5t-175 35.5t-147 100.5t-101.5 165t-37.5 220zM268 496q0 -170 79.5 -275.5t207.5 -105.5 q129 0 208 105.5t79 275.5q0 172 -79 278.5t-208 106.5q-128 0 -207.5 -106.5t-79.5 -278.5zM446 -311q0 47 31.5 77.5t79.5 30.5t79.5 -30.5t31.5 -77.5q0 -49 -31.5 -80t-79.5 -31t-79.5 31t-31.5 80z" />
<glyph unicode="&#x1ece;" horiz-adv-x="1359" d="M106 678q0 318 158.5 504t415.5 186t416 -186.5t159 -503.5q0 -321 -159.5 -512t-415.5 -191t-415 191t-159 512zM283 678q0 -252 108.5 -402.5t288.5 -150.5t288.5 150.5t108.5 402.5q0 249 -108 395t-289 146t-289 -146t-108 -395zM549 1688l18 98q135 -5 209 -47 t74 -119q0 -152 -227 -190l-19 77q115 31 115 95q0 80 -170 86z" />
<glyph unicode="&#x1ecf;" horiz-adv-x="1110" d="M94 496q0 122 37.5 222.5t101.5 165.5t147 100.5t175 35.5t175 -35.5t147 -100.5t101.5 -165.5t37.5 -222.5q0 -120 -37.5 -220t-101.5 -165t-147 -100.5t-175 -35.5t-175 35.5t-147 100.5t-101.5 165t-37.5 220zM268 496q0 -170 79.5 -275.5t207.5 -105.5 q129 0 208 105.5t79 275.5q0 172 -79 278.5t-208 106.5q-128 0 -207.5 -106.5t-79.5 -278.5zM424 1391l18 98q135 -5 209 -47t74 -119q0 -152 -227 -190l-19 77q115 31 115 95q0 80 -170 86z" />
<glyph unicode="&#x1ed0;" horiz-adv-x="1359" d="M106 678q0 318 158.5 504t415.5 186t416 -186.5t159 -503.5q0 -321 -159.5 -512t-415.5 -191t-415 191t-159 512zM283 678q0 -252 108.5 -402.5t288.5 -150.5t288.5 150.5t108.5 402.5q0 249 -108 395t-289 146t-289 -146t-108 -395zM418 1446l188 217h148l188 -217h-129 l-129 127h-8l-129 -127h-129zM866 1577l146 227h147l-186 -227h-107z" />
<glyph unicode="&#x1ed1;" horiz-adv-x="1110" d="M94 496q0 122 37.5 222.5t101.5 165.5t147 100.5t175 35.5t175 -35.5t147 -100.5t101.5 -165.5t37.5 -222.5q0 -120 -37.5 -220t-101.5 -165t-147 -100.5t-175 -35.5t-175 35.5t-147 100.5t-101.5 165t-37.5 220zM268 496q0 -170 79.5 -275.5t207.5 -105.5 q129 0 208 105.5t79 275.5q0 172 -79 278.5t-208 106.5q-128 0 -207.5 -106.5t-79.5 -278.5zM317 1174l168 243h140l170 -243h-115l-121 149h-8l-119 -149h-115zM737 1311l150 233h143l-188 -233h-105z" />
<glyph unicode="&#x1ed2;" horiz-adv-x="1359" d="M106 678q0 318 158.5 504t415.5 186t416 -186.5t159 -503.5q0 -321 -159.5 -512t-415.5 -191t-415 191t-159 512zM283 678q0 -252 108.5 -402.5t288.5 -150.5t288.5 150.5t108.5 402.5q0 249 -108 395t-289 146t-289 -146t-108 -395zM418 1446l188 217h148l188 -217h-129 l-129 127h-8l-129 -127h-129zM766 1804h145l146 -227h-107z" />
<glyph unicode="&#x1ed3;" horiz-adv-x="1110" d="M94 496q0 122 37.5 222.5t101.5 165.5t147 100.5t175 35.5t175 -35.5t147 -100.5t101.5 -165.5t37.5 -222.5q0 -120 -37.5 -220t-101.5 -165t-147 -100.5t-175 -35.5t-175 35.5t-147 100.5t-101.5 165t-37.5 220zM268 496q0 -170 79.5 -275.5t207.5 -105.5 q129 0 208 105.5t79 275.5q0 172 -79 278.5t-208 106.5q-128 0 -207.5 -106.5t-79.5 -278.5zM317 1174l168 243h140l170 -243h-115l-121 149h-8l-119 -149h-115zM674 1544h143l150 -233h-105z" />
<glyph unicode="&#x1ed4;" horiz-adv-x="1359" d="M106 678q0 318 158.5 504t415.5 186t416 -186.5t159 -503.5q0 -321 -159.5 -512t-415.5 -191t-415 191t-159 512zM283 678q0 -252 108.5 -402.5t288.5 -150.5t288.5 150.5t108.5 402.5q0 249 -108 395t-289 146t-289 -146t-108 -395zM418 1446l188 217h148l188 -217h-129 l-129 127h-8l-129 -127h-129zM842 1769l16 86q248 -9 248 -149q0 -131 -191 -162l-22 72q92 22 92 74q0 39 -33 56.5t-110 22.5z" />
<glyph unicode="&#x1ed5;" horiz-adv-x="1110" d="M94 496q0 122 37.5 222.5t101.5 165.5t147 100.5t175 35.5t175 -35.5t147 -100.5t101.5 -165.5t37.5 -222.5q0 -120 -37.5 -220t-101.5 -165t-147 -100.5t-175 -35.5t-175 35.5t-147 100.5t-101.5 165t-37.5 220zM268 496q0 -170 79.5 -275.5t207.5 -105.5 q129 0 208 105.5t79 275.5q0 172 -79 278.5t-208 106.5q-128 0 -207.5 -106.5t-79.5 -278.5zM317 1174l168 243h140l170 -243h-115l-121 149h-8l-119 -149h-115zM719 1522l16 84q248 -9 248 -150q0 -40 -15.5 -69.5t-44.5 -49t-58.5 -30.5t-71.5 -21l-19 72q88 24 88 80 q0 40 -33.5 60t-109.5 24z" />
<glyph unicode="&#x1ed6;" horiz-adv-x="1359" d="M106 678q0 318 158.5 504t415.5 186t416 -186.5t159 -503.5q0 -321 -159.5 -512t-415.5 -191t-415 191t-159 512zM283 678q0 -252 108.5 -402.5t288.5 -150.5t288.5 150.5t108.5 402.5q0 249 -108 395t-289 146t-289 -146t-108 -395zM410 1733q8 85 50.5 137.5 t110.5 52.5q42 0 80.5 -23t71 -46t59.5 -23q31 0 52.5 24.5t29.5 67.5h86q-8 -83 -51 -136.5t-111 -53.5q-42 0 -80.5 23t-70.5 46t-59 23q-31 0 -52.5 -24t-27.5 -68h-88zM418 1446l188 217h148l188 -217h-129l-129 127h-8l-129 -127h-129z" />
<glyph unicode="&#x1ed7;" horiz-adv-x="1110" d="M94 496q0 122 37.5 222.5t101.5 165.5t147 100.5t175 35.5t175 -35.5t147 -100.5t101.5 -165.5t37.5 -222.5q0 -120 -37.5 -220t-101.5 -165t-147 -100.5t-175 -35.5t-175 35.5t-147 100.5t-101.5 165t-37.5 220zM268 496q0 -170 79.5 -275.5t207.5 -105.5 q129 0 208 105.5t79 275.5q0 172 -79 278.5t-208 106.5q-128 0 -207.5 -106.5t-79.5 -278.5zM289 1456q8 84 49.5 135t110.5 51q44 0 81.5 -22t68.5 -44t58 -22q65 0 80 88h86q-8 -84 -50 -135t-111 -51q-43 0 -81 22t-69.5 44t-58.5 22q-30 0 -51.5 -22.5t-28.5 -65.5h-84z M301 1169l178 213h154l178 -213h-121l-131 134h-8l-131 -134h-119z" />
<glyph unicode="&#x1ed8;" horiz-adv-x="1359" d="M106 678q0 318 158.5 504t415.5 186t416 -186.5t159 -503.5q0 -321 -159.5 -512t-415.5 -191t-415 191t-159 512zM283 678q0 -252 108.5 -402.5t288.5 -150.5t288.5 150.5t108.5 402.5q0 249 -108 395t-289 146t-289 -146t-108 -395zM401 1446l197 229h164l196 -229h-137 l-137 139h-8l-137 -139h-138zM569 -311q0 47 31.5 77.5t79.5 30.5t79.5 -30.5t31.5 -77.5q0 -49 -31.5 -80t-79.5 -31t-79.5 31t-31.5 80z" />
<glyph unicode="&#x1ed9;" horiz-adv-x="1110" d="M94 496q0 122 37.5 222.5t101.5 165.5t147 100.5t175 35.5t175 -35.5t147 -100.5t101.5 -165.5t37.5 -222.5q0 -120 -37.5 -220t-101.5 -165t-147 -100.5t-175 -35.5t-175 35.5t-147 100.5t-101.5 165t-37.5 220zM268 496q0 -170 79.5 -275.5t207.5 -105.5 q129 0 208 105.5t79 275.5q0 172 -79 278.5t-208 106.5q-128 0 -207.5 -106.5t-79.5 -278.5zM293 1174l192 288h140l194 -288h-123l-137 186h-8l-137 -186h-121zM446 -311q0 47 31.5 77.5t79.5 30.5t79.5 -30.5t31.5 -77.5q0 -49 -31.5 -80t-79.5 -31t-79.5 31t-31.5 80z " />
<glyph unicode="&#x1eda;" horiz-adv-x="1359" d="M111 678q0 318 159 504t416 186q148 0 266 -65q86 15 126 48t40 89q0 37 -28 84l120 59q47 -64 47 -133q0 -164 -208 -215q100 -91 155.5 -233.5t55.5 -323.5q0 -320 -159.5 -511.5t-414.5 -191.5q-256 0 -415.5 191t-159.5 512zM287 678q0 -252 108.5 -402.5 t290.5 -150.5q180 0 288.5 150.5t108.5 402.5q0 249 -108 395t-289 146q-182 0 -290.5 -146t-108.5 -395zM575 1446l181 229h192l-231 -229h-142z" />
<glyph unicode="&#x1edb;" horiz-adv-x="1110" d="M94 496q0 122 37.5 222.5t101.5 165.5t147 100.5t175 35.5q106 0 193 -43q151 25 151 133q0 40 -31 86l123 59q47 -64 47 -133q0 -156 -190 -211q78 -70 123 -176t45 -239q0 -120 -37.5 -220t-101.5 -165t-147 -100.5t-175 -35.5t-175 35.5t-147 100.5t-101.5 165 t-37.5 220zM268 496q0 -170 79.5 -275.5t207.5 -105.5q129 0 208 105.5t79 275.5q0 172 -79 278.5t-208 106.5q-128 0 -207.5 -106.5t-79.5 -278.5zM422 1174l184 288h176l-231 -288h-129z" />
<glyph unicode="&#x1edc;" horiz-adv-x="1359" d="M111 678q0 318 159 504t416 186q148 0 266 -65q86 15 126 48t40 89q0 37 -28 84l120 59q47 -64 47 -133q0 -164 -208 -215q100 -91 155.5 -233.5t55.5 -323.5q0 -320 -159.5 -511.5t-414.5 -191.5q-256 0 -415.5 191t-159.5 512zM287 678q0 -252 108.5 -402.5 t290.5 -150.5q180 0 288.5 150.5t108.5 402.5q0 249 -108 395t-289 146q-182 0 -290.5 -146t-108.5 -395zM412 1675h192l180 -229h-141z" />
<glyph unicode="&#x1edd;" horiz-adv-x="1110" d="M94 496q0 122 37.5 222.5t101.5 165.5t147 100.5t175 35.5q106 0 193 -43q151 25 151 133q0 40 -31 86l123 59q47 -64 47 -133q0 -156 -190 -211q78 -70 123 -176t45 -239q0 -120 -37.5 -220t-101.5 -165t-147 -100.5t-175 -35.5t-175 35.5t-147 100.5t-101.5 165 t-37.5 220zM268 496q0 -170 79.5 -275.5t207.5 -105.5q129 0 208 105.5t79 275.5q0 172 -79 278.5t-208 106.5q-128 0 -207.5 -106.5t-79.5 -278.5zM328 1462h176l184 -288h-129z" />
<glyph unicode="&#x1ede;" horiz-adv-x="1359" d="M111 678q0 318 159 504t416 186q148 0 266 -65q86 15 126 48t40 89q0 37 -28 84l120 59q47 -64 47 -133q0 -164 -208 -215q100 -91 155.5 -233.5t55.5 -323.5q0 -320 -159.5 -511.5t-414.5 -191.5q-256 0 -415.5 191t-159.5 512zM287 678q0 -252 108.5 -402.5 t290.5 -150.5q180 0 288.5 150.5t108.5 402.5q0 249 -108 395t-289 146q-182 0 -290.5 -146t-108.5 -395zM549 1688l18 98q135 -5 209 -47t74 -119q0 -152 -227 -190l-19 77q115 31 115 95q0 80 -170 86z" />
<glyph unicode="&#x1edf;" horiz-adv-x="1110" d="M94 496q0 122 37.5 222.5t101.5 165.5t147 100.5t175 35.5q106 0 193 -43q151 25 151 133q0 40 -31 86l123 59q47 -64 47 -133q0 -156 -190 -211q78 -70 123 -176t45 -239q0 -120 -37.5 -220t-101.5 -165t-147 -100.5t-175 -35.5t-175 35.5t-147 100.5t-101.5 165 t-37.5 220zM268 496q0 -170 79.5 -275.5t207.5 -105.5q129 0 208 105.5t79 275.5q0 172 -79 278.5t-208 106.5q-128 0 -207.5 -106.5t-79.5 -278.5zM424 1391l18 98q135 -5 209 -47t74 -119q0 -152 -227 -190l-19 77q115 31 115 95q0 80 -170 86z" />
<glyph unicode="&#x1ee0;" horiz-adv-x="1359" d="M111 678q0 318 159 504t416 186q148 0 266 -65q86 15 126 48t40 89q0 37 -28 84l120 59q47 -64 47 -133q0 -164 -208 -215q100 -91 155.5 -233.5t55.5 -323.5q0 -320 -159.5 -511.5t-414.5 -191.5q-256 0 -415.5 191t-159.5 512zM287 678q0 -252 108.5 -402.5 t290.5 -150.5q180 0 288.5 150.5t108.5 402.5q0 249 -108 395t-289 146q-182 0 -290.5 -146t-108.5 -395zM383 1456q9 98 55.5 159.5t118.5 61.5q46 0 91 -26.5t83.5 -53t69.5 -26.5q30 0 52.5 28t29.5 78h94q-9 -97 -56 -159t-118 -62q-45 0 -90 27t-83.5 53.5t-68.5 26.5 q-31 0 -53 -27.5t-31 -79.5h-94z" />
<glyph unicode="&#x1ee1;" horiz-adv-x="1110" d="M94 496q0 122 37.5 222.5t101.5 165.5t147 100.5t175 35.5q106 0 193 -43q151 25 151 133q0 40 -31 86l123 59q47 -64 47 -133q0 -156 -190 -211q78 -70 123 -176t45 -239q0 -120 -37.5 -220t-101.5 -165t-147 -100.5t-175 -35.5t-175 35.5t-147 100.5t-101.5 165 t-37.5 220zM268 496q0 -170 79.5 -275.5t207.5 -105.5q129 0 208 105.5t79 275.5q0 172 -79 278.5t-208 106.5q-128 0 -207.5 -106.5t-79.5 -278.5zM270 1186q8 97 51 157t115 60q35 0 71 -16.5t60.5 -36t52.5 -36t50 -16.5q57 0 75 105h95q-8 -97 -51 -157t-115 -60 q-34 0 -69.5 16t-59.5 36t-53 36t-52 16q-58 0 -73 -104h-97z" />
<glyph unicode="&#x1ee2;" horiz-adv-x="1359" d="M111 678q0 318 159 504t416 186q148 0 266 -65q86 15 126 48t40 89q0 37 -28 84l120 59q47 -64 47 -133q0 -164 -208 -215q100 -91 155.5 -233.5t55.5 -323.5q0 -320 -159.5 -511.5t-414.5 -191.5q-256 0 -415.5 191t-159.5 512zM287 678q0 -252 108.5 -402.5 t290.5 -150.5q180 0 288.5 150.5t108.5 402.5q0 249 -108 395t-289 146q-182 0 -290.5 -146t-108.5 -395zM569 -311q0 47 31.5 77.5t79.5 30.5t79.5 -30.5t31.5 -77.5q0 -49 -31.5 -80t-79.5 -31t-79.5 31t-31.5 80z" />
<glyph unicode="&#x1ee3;" horiz-adv-x="1110" d="M94 496q0 122 37.5 222.5t101.5 165.5t147 100.5t175 35.5q106 0 193 -43q151 25 151 133q0 40 -31 86l123 59q47 -64 47 -133q0 -156 -190 -211q78 -70 123 -176t45 -239q0 -120 -37.5 -220t-101.5 -165t-147 -100.5t-175 -35.5t-175 35.5t-147 100.5t-101.5 165 t-37.5 220zM268 496q0 -170 79.5 -275.5t207.5 -105.5q129 0 208 105.5t79 275.5q0 172 -79 278.5t-208 106.5q-128 0 -207.5 -106.5t-79.5 -278.5zM446 -311q0 47 31.5 77.5t79.5 30.5t79.5 -30.5t31.5 -77.5q0 -49 -31.5 -80t-79.5 -31t-79.5 31t-31.5 80z" />
<glyph unicode="&#x1ee4;" horiz-adv-x="1320" d="M178 555v788h170v-792q0 -426 314 -426q317 0 317 426v792h164v-788q0 -157 -36 -272t-102.5 -181t-151 -96.5t-191.5 -30.5t-192 30.5t-152 96.5t-103.5 181t-36.5 272zM551 -311q0 47 31 77.5t80 30.5q47 0 78.5 -30.5t31.5 -77.5q0 -49 -31 -80t-79 -31 q-50 0 -80.5 31t-30.5 80z" />
<glyph unicode="&#x1ee5;" horiz-adv-x="1114" d="M154 365v630h170v-608q0 -140 44 -203t142 -63q75 0 135.5 39t132.5 129v706h168v-995h-139l-14 156h-7q-75 -89 -152.5 -135t-174.5 -46q-305 0 -305 390zM483 -311q0 47 31.5 77.5t79.5 30.5q49 0 80 -30.5t31 -77.5q0 -49 -30.5 -80t-80.5 -31q-48 0 -79.5 31 t-31.5 80z" />
<glyph unicode="&#x1ee6;" horiz-adv-x="1320" d="M178 555v788h170v-792q0 -426 314 -426q317 0 317 426v792h164v-788q0 -157 -36 -272t-102.5 -181t-151 -96.5t-191.5 -30.5t-192 30.5t-152 96.5t-103.5 181t-36.5 272zM530 1688l17 98q137 -5 210.5 -47t73.5 -119q0 -152 -227 -190l-20 77q116 32 116 95q0 80 -170 86 z" />
<glyph unicode="&#x1ee7;" horiz-adv-x="1114" d="M154 365v630h170v-608q0 -140 44 -203t142 -63q75 0 135.5 39t132.5 129v706h168v-995h-139l-14 156h-7q-75 -89 -152.5 -135t-174.5 -46q-305 0 -305 390zM426 1391l18 98q135 -5 209 -47t74 -119q0 -152 -227 -190l-19 77q115 31 115 95q0 80 -170 86z" />
<glyph unicode="&#x1ee8;" horiz-adv-x="1349" d="M178 555v788h170v-792q0 -426 314 -426q317 0 317 426v792h68q91 8 137.5 39.5t46.5 98.5q0 37 -31 84l121 59q47 -60 47 -133q0 -171 -225 -221v-715q0 -157 -36 -272t-102.5 -181t-151 -96.5t-191.5 -30.5t-192 30.5t-152 96.5t-103.5 181t-36.5 272zM555 1446l180 229 h193l-232 -229h-141z" />
<glyph unicode="&#x1ee9;" horiz-adv-x="1114" d="M154 365v630h170v-608q0 -140 44 -203t142 -63q75 0 135.5 39t132.5 129v706h43q172 18 172 135q0 40 -28 87l120 59q48 -66 48 -133q0 -156 -187 -211v-932h-139l-14 156h-7q-75 -89 -152.5 -135t-174.5 -46q-305 0 -305 390zM410 1174l186 288h176l-231 -288h-131z" />
<glyph unicode="&#x1eea;" horiz-adv-x="1349" d="M178 555v788h170v-792q0 -426 314 -426q317 0 317 426v792h68q91 8 137.5 39.5t46.5 98.5q0 37 -31 84l121 59q47 -60 47 -133q0 -171 -225 -221v-715q0 -157 -36 -272t-102.5 -181t-151 -96.5t-191.5 -30.5t-192 30.5t-152 96.5t-103.5 181t-36.5 272zM391 1675h193 l180 -229h-141z" />
<glyph unicode="&#x1eeb;" horiz-adv-x="1114" d="M154 365v630h170v-608q0 -140 44 -203t142 -63q75 0 135.5 39t132.5 129v706h43q172 18 172 135q0 40 -28 87l120 59q48 -66 48 -133q0 -156 -187 -211v-932h-139l-14 156h-7q-75 -89 -152.5 -135t-174.5 -46q-305 0 -305 390zM317 1462h175l186 -288h-129z" />
<glyph unicode="&#x1eec;" horiz-adv-x="1349" d="M178 555v788h170v-792q0 -426 314 -426q317 0 317 426v792h68q91 8 137.5 39.5t46.5 98.5q0 37 -31 84l121 59q47 -60 47 -133q0 -171 -225 -221v-715q0 -157 -36 -272t-102.5 -181t-151 -96.5t-191.5 -30.5t-192 30.5t-152 96.5t-103.5 181t-36.5 272zM528 1688l19 98 q135 -5 208.5 -47t73.5 -119q0 -152 -227 -190l-18 77q114 31 114 95q0 80 -170 86z" />
<glyph unicode="&#x1eed;" horiz-adv-x="1114" d="M154 365v630h170v-608q0 -140 44 -203t142 -63q75 0 135.5 39t132.5 129v706h43q172 18 172 135q0 40 -28 87l120 59q48 -66 48 -133q0 -156 -187 -211v-932h-139l-14 156h-7q-75 -89 -152.5 -135t-174.5 -46q-305 0 -305 390zM414 1391l16 98q137 -5 211 -47t74 -119 q0 -152 -228 -190l-20 77q117 32 117 95q0 80 -170 86z" />
<glyph unicode="&#x1eee;" horiz-adv-x="1349" d="M178 555v788h170v-792q0 -426 314 -426q317 0 317 426v792h68q91 8 137.5 39.5t46.5 98.5q0 37 -31 84l121 59q47 -60 47 -133q0 -171 -225 -221v-715q0 -157 -36 -272t-102.5 -181t-151 -96.5t-191.5 -30.5t-192 30.5t-152 96.5t-103.5 181t-36.5 272zM362 1456 q9 98 56 159.5t119 61.5q37 0 73.5 -16.5t60.5 -36.5t54 -36.5t55 -16.5q30 0 52.5 28t29.5 78h94q-9 -97 -56 -159t-118 -62q-36 0 -72 16.5t-60.5 37t-54.5 37t-54 16.5q-31 0 -53 -27.5t-31 -79.5h-95z" />
<glyph unicode="&#x1eef;" horiz-adv-x="1114" d="M154 365v630h170v-608q0 -140 44 -203t142 -63q75 0 135.5 39t132.5 129v706h43q172 18 172 135q0 40 -28 87l120 59q48 -66 48 -133q0 -156 -187 -211v-932h-139l-14 156h-7q-75 -89 -152.5 -135t-174.5 -46q-305 0 -305 390zM258 1186q10 98 52.5 157.5t115.5 59.5 q34 0 69.5 -16.5t60 -36t53 -36t50.5 -16.5q59 0 74 105h96q-10 -98 -52 -157.5t-115 -59.5q-34 0 -69.5 16t-59.5 36t-52.5 36t-50.5 16q-58 0 -76 -104h-96z" />
<glyph unicode="&#x1ef0;" horiz-adv-x="1349" d="M178 555v788h170v-792q0 -426 314 -426q317 0 317 426v792h68q91 8 137.5 39.5t46.5 98.5q0 37 -31 84l121 59q47 -60 47 -133q0 -171 -225 -221v-715q0 -157 -36 -272t-102.5 -181t-151 -96.5t-191.5 -30.5t-192 30.5t-152 96.5t-103.5 181t-36.5 272zM549 -311 q0 47 31.5 77.5t78.5 30.5q48 0 79.5 -30.5t31.5 -77.5q0 -49 -31.5 -80t-79.5 -31t-79 31t-31 80z" />
<glyph unicode="&#x1ef1;" horiz-adv-x="1114" d="M154 365v630h170v-608q0 -140 44 -203t142 -63q75 0 135.5 39t132.5 129v706h43q172 18 172 135q0 40 -28 87l120 59q48 -66 48 -133q0 -156 -187 -211v-932h-139l-14 156h-7q-75 -89 -152.5 -135t-174.5 -46q-305 0 -305 390zM471 -311q0 47 31.5 77.5t79.5 30.5 q49 0 79.5 -30t30.5 -78q0 -50 -30.5 -80.5t-79.5 -30.5q-48 0 -79.5 31t-31.5 80z" />
<glyph unicode="&#x1ef2;" horiz-adv-x="974" d="M-2 1343h182l174 -378l129 -293h9q113 241 135 293l172 378h178l-404 -823v-520h-172v520zM219 1675h193l180 -229h-141z" />
<glyph unicode="&#x1ef3;" horiz-adv-x="956" d="M25 995h174l202 -551q41 -113 97 -280h8q16 51 45 150t39 130l178 551h164l-375 -1077q-28 -79 -60 -138t-76.5 -108t-104 -74.5t-132.5 -25.5q-61 0 -116 20l32 134q50 -15 76 -15q154 0 225 213l23 74zM270 1462h176l185 -288h-129z" />
<glyph unicode="&#x1ef4;" horiz-adv-x="974" d="M-2 1343h182l174 -378l129 -293h9q113 241 135 293l172 378h178l-404 -823v-520h-172v520zM381 -311q0 47 31.5 77.5t79.5 30.5q47 0 78.5 -30.5t31.5 -77.5q0 -49 -31 -80t-79 -31t-79.5 31t-31.5 80z" />
<glyph unicode="&#x1ef5;" horiz-adv-x="956" d="M25 995h174l202 -551q41 -113 97 -280h8q16 51 45 150t39 130l178 551h164l-375 -1077q-28 -79 -60 -138t-76.5 -108t-104 -74.5t-132.5 -25.5q-61 0 -116 20l32 134q50 -15 76 -15q154 0 225 213l23 74zM692 -303q0 47 31.5 77.5t79.5 30.5q47 0 78.5 -30.5t31.5 -77.5 q0 -49 -31.5 -81t-78.5 -32q-48 0 -79.5 32t-31.5 81z" />
<glyph unicode="&#x1ef6;" horiz-adv-x="974" d="M-2 1343h182l174 -378l129 -293h9q113 241 135 293l172 378h178l-404 -823v-520h-172v520zM356 1688l19 98q135 -5 208.5 -47t73.5 -119q0 -152 -227 -190l-18 77q114 31 114 95q0 80 -170 86z" />
<glyph unicode="&#x1ef7;" horiz-adv-x="956" d="M25 995h174l202 -551q41 -113 97 -280h8q16 51 45 150t39 130l178 551h164l-375 -1077q-28 -79 -60 -138t-76.5 -108t-104 -74.5t-132.5 -25.5q-61 0 -116 20l32 134q50 -15 76 -15q154 0 225 213l23 74zM367 1391l18 98q135 -5 209 -47t74 -119q0 -152 -228 -190l-18 77 q115 31 115 95q0 80 -170 86z" />
<glyph unicode="&#x1ef8;" horiz-adv-x="974" d="M-2 1343h182l174 -378l129 -293h9q113 241 135 293l172 378h178l-404 -823v-520h-172v520zM190 1456q9 98 56 159.5t119 61.5q45 0 89.5 -26.5t83 -53t68.5 -26.5q31 0 53 27.5t31 78.5h92q-8 -97 -54 -159t-118 -62q-46 0 -91 27t-83 53.5t-69 26.5q-30 0 -52.5 -28 t-29.5 -79h-95z" />
<glyph unicode="&#x1ef9;" horiz-adv-x="956" d="M25 995h174l202 -551q41 -113 97 -280h8q16 51 45 150t39 130l178 551h164l-375 -1077q-28 -79 -60 -138t-76.5 -108t-104 -74.5t-132.5 -25.5q-61 0 -116 20l32 134q50 -15 76 -15q154 0 225 213l23 74zM213 1186q8 97 51 157t115 60q44 0 88.5 -26.5t81.5 -52.5t63 -26 q58 0 76 105h94q-8 -97 -51 -157t-115 -60q-43 0 -86.5 26t-81 52t-65.5 26q-59 0 -74 -104h-96z" />
<glyph unicode="&#x2000;" horiz-adv-x="975" />
<glyph unicode="&#x2001;" horiz-adv-x="1950" />
<glyph unicode="&#x2002;" horiz-adv-x="975" />
<glyph unicode="&#x2003;" horiz-adv-x="1950" />
<glyph unicode="&#x2004;" horiz-adv-x="650" />
<glyph unicode="&#x2005;" horiz-adv-x="487" />
<glyph unicode="&#x2006;" horiz-adv-x="325" />
<glyph unicode="&#x2007;" horiz-adv-x="1017" />
<glyph unicode="&#x2008;" horiz-adv-x="243" />
<glyph unicode="&#x2009;" horiz-adv-x="390" />
<glyph unicode="&#x200a;" horiz-adv-x="108" />
<glyph unicode="&#x2010;" horiz-adv-x="636" d="M84 449v129h471v-129h-471z" />
<glyph unicode="&#x2011;" horiz-adv-x="636" d="M84 449v129h471v-129h-471z" />
<glyph unicode="&#x2012;" horiz-adv-x="1017" d="M84 457v116h852v-116h-852z" />
<glyph unicode="&#x2013;" horiz-adv-x="983" d="M84 457v116h815v-116h-815z" />
<glyph unicode="&#x2014;" horiz-adv-x="1638" d="M84 457v116h1470v-116h-1470z" />
<glyph unicode="&#x2015;" horiz-adv-x="1638" d="M84 457v116h1470v-116h-1470z" />
<glyph unicode="&#x2016;" horiz-adv-x="798" d="M188 -512v2048h119v-2048h-119zM492 -512v2048h118v-2048h-118z" />
<glyph unicode="&#x2018;" horiz-adv-x="509" d="M117 1061q0 238 217 364l49 -79q-81 -53 -118.5 -111t-37.5 -143q6 2 19 2q44 0 76 -28t32 -77q0 -52 -30 -82t-78 -30q-62 0 -95.5 47.5t-33.5 136.5z" />
<glyph unicode="&#x2019;" horiz-adv-x="509" d="M129 961q80 53 117 111.5t37 144.5q-9 -3 -17 -3q-45 0 -76.5 27.5t-31.5 75.5q0 53 30 84t78 31q60 0 94.5 -49t34.5 -138q0 -235 -219 -362z" />
<glyph unicode="&#x201a;" horiz-adv-x="509" d="M129 -219q81 55 117.5 112.5t36.5 143.5q-6 -2 -17 -2q-45 0 -76.5 27.5t-31.5 74.5q0 53 30 84t78 31q60 0 94.5 -48.5t34.5 -137.5q0 -236 -219 -363z" />
<glyph unicode="&#x201c;" horiz-adv-x="872" d="M117 1061q0 238 217 364l49 -79q-81 -53 -118.5 -111t-37.5 -143q6 2 19 2q44 0 76 -28t32 -77q0 -52 -30 -82t-78 -30q-62 0 -95.5 47.5t-33.5 136.5zM477 1061q0 238 219 364l47 -79q-80 -54 -117.5 -112t-37.5 -142q6 2 18 2q45 0 77 -28t32 -77q0 -52 -30.5 -82 t-78.5 -30q-62 0 -95.5 47.5t-33.5 136.5z" />
<glyph unicode="&#x201d;" horiz-adv-x="872" d="M129 961q80 53 117 111.5t37 144.5q-9 -3 -17 -3q-45 0 -76.5 27.5t-31.5 75.5q0 53 30 84t78 31q60 0 94.5 -49t34.5 -138q0 -235 -219 -362zM489 961q81 54 118.5 112t37.5 144q-9 -3 -18 -3q-45 0 -77 28t-32 75q0 53 30.5 84t78.5 31q62 0 95.5 -49t33.5 -138 q0 -236 -217 -362z" />
<glyph unicode="&#x201e;" horiz-adv-x="872" d="M129 -219q81 55 117.5 112.5t36.5 143.5q-6 -2 -17 -2q-45 0 -76.5 27.5t-31.5 74.5q0 53 30 84t78 31q60 0 94.5 -48.5t34.5 -137.5q0 -236 -219 -363zM489 -219q81 56 118.5 113.5t37.5 142.5q-6 -2 -18 -2q-45 0 -77 27.5t-32 74.5q0 53 30.5 84t78.5 31 q62 0 95.5 -48.5t33.5 -137.5q0 -237 -217 -363z" />
<glyph unicode="&#x2020;" horiz-adv-x="929" d="M111 995v146l292 -11l-10 328h144l-11 -328l293 11v-146l-293 11l11 -1170h-144l10 1170z" />
<glyph unicode="&#x2021;" horiz-adv-x="929" d="M111 154v145l292 -14l-10 362l10 363l-292 -15v146l292 -11l-10 328h144l-11 -328l293 11v-146l-293 15l11 -363l-11 -362l293 14v-145l-293 10l11 -328h-144l10 328z" />
<glyph unicode="&#x2022;" horiz-adv-x="622" d="M82 539q0 108 67 177.5t162 69.5t162.5 -69.5t67.5 -177.5t-67.5 -177t-162.5 -69t-162 69t-67 177z" />
<glyph unicode="&#x2026;" horiz-adv-x="1941" d="M193 102q0 58 35 94.5t87 36.5q51 0 86 -37t35 -94q0 -55 -35.5 -91t-85.5 -36q-52 0 -87 36t-35 91zM879 102q0 58 35 94.5t87 36.5q51 0 86 -37t35 -94q0 -55 -35.5 -91t-85.5 -36q-52 0 -87 36t-35 91zM1565 102q0 58 35.5 94.5t87.5 36.5q50 0 85 -37t35 -94 q0 -55 -35 -91t-85 -36q-52 0 -87.5 36t-35.5 91z" />
<glyph unicode="&#x202f;" horiz-adv-x="390" />
<glyph unicode="&#x2030;" horiz-adv-x="2445" d="M72 946q0 200 82.5 311t222.5 111q139 0 222 -111.5t83 -310.5q0 -200 -83 -313t-222 -113q-140 0 -222.5 113t-82.5 313zM199 946q0 -156 48 -238.5t130 -82.5q80 0 128 82.5t48 238.5t-47.5 237t-128.5 81q-82 0 -130 -80.5t-48 -237.5zM410 -25l741 1393h115 l-742 -1393h-114zM1001 401q0 198 83.5 310t222.5 112q140 0 222.5 -111.5t82.5 -310.5q0 -201 -82.5 -313.5t-222.5 -112.5q-139 0 -222.5 112.5t-83.5 313.5zM1130 401q0 -155 48 -238t129 -83q82 0 130 82.5t48 238.5t-48 237t-130 81q-81 0 -129 -81.5t-48 -236.5z M1763 401q0 198 83 310t222 112q140 0 224 -112t84 -310q0 -201 -84 -313.5t-224 -112.5q-139 0 -222 112.5t-83 313.5zM1892 401q0 -156 48 -238.5t128 -82.5q82 0 130.5 82.5t48.5 238.5q0 155 -48.5 236.5t-130.5 81.5q-81 0 -128.5 -81.5t-47.5 -236.5z" />
<glyph unicode="&#x2032;" horiz-adv-x="509" d="M166 889l47 524h166l-33 -205l-70 -319h-110z" />
<glyph unicode="&#x2033;" horiz-adv-x="872" d="M166 889l47 524h166l-33 -205l-70 -319h-110zM526 889l47 524h166l-30 -205l-72 -319h-111z" />
<glyph unicode="&#x2039;" horiz-adv-x="555" d="M92 453v127l279 317l73 -61l-241 -320l241 -323l-73 -58z" />
<glyph unicode="&#x203a;" horiz-adv-x="555" d="M111 193l241 323l-241 320l71 61l281 -317v-127l-281 -318z" />
<glyph unicode="&#x203d;" horiz-adv-x="884" d="M55 1227q70 78 165 124t202 46q164 0 265 -90.5t101 -231.5q0 -84 -36.5 -160t-86.5 -133.5t-98.5 -113.5t-78 -123t-19.5 -139h-119l-20 514l-11 170h144l-4 -170l-2 -228q17 29 71 103t78.5 130t24.5 124q0 93 -58.5 154t-162.5 61q-146 0 -258 -125zM285 102 q0 58 34.5 94.5t86.5 36.5t87 -36.5t35 -94.5q0 -55 -35 -91t-87 -36q-51 0 -86 36t-35 91z" />
<glyph unicode="&#x2044;" horiz-adv-x="176" d="M-342 -25l741 1393h115l-741 -1393h-115z" />
<glyph unicode="&#x205f;" horiz-adv-x="487" />
<glyph unicode="&#x20a1;" horiz-adv-x="1017" d="M125 651q0 271 109 446t298 220l25 215h78l-25 -203q14 2 45 2q41 0 74 -8l25 209h77l-28 -234q96 -45 166 -135l-101 -94q-43 53 -82 80l-122 -1036q120 14 217 143l98 -90q-139 -180 -332 -191l-24 -200h-78l24 202q-53 5 -116 29l-27 -231h-78l33 268 q-121 78 -188.5 235t-67.5 373zM299 657q0 -279 104 -426l111 934q-104 -52 -159.5 -184t-55.5 -324zM471 160q50 -36 115 -45l127 1073q-40 8 -62 8q-21 0 -57 -4z" />
<glyph unicode="&#x20a4;" horiz-adv-x="1017" d="M109 481v90l141 11h65q-17 72 -34 120h-172v91l124 10h19q-25 91 -25 151q0 172 105 274.5t276 102.5q193 0 318 -153l-99 -97q-88 109 -206 109q-108 0 -168 -66t-60 -174q0 -61 21 -147h354v-101h-328q22 -71 29 -120h299v-101h-289v-12q0 -103 -31 -176t-96 -139v-9 h576v-145h-817v102q103 56 160 154t57 215v10h-219z" />
<glyph unicode="&#x20a6;" horiz-adv-x="1017" d="M23 492v77l153 11v122h-153v76l153 10v519h172l182 -519h179v519h133v-519h147v-86h-147v-122h147v-88h-147v-492h-172l-172 492h-189v-492h-133v492h-153zM276 1153l25 -365h96l-112 365h-9zM307 702l2 -45v-77h158l-43 120v2h-117zM561 702l33 -94l8 -28h111l-4 69v53 h-148zM629 492l104 -340h8l-22 340h-90z" />
<glyph unicode="&#x20a7;" horiz-adv-x="1017" d="M20 854v104l150 11v338h248q93 0 168 -18.5t135 -58t97 -105.5t46 -156h127v-115h-127q-18 -174 -139 -264t-307 -90h-86v-500h-162v854h-150zM332 616h65q134 0 213 61t92 177h-370v-238zM332 969h370q-15 117 -91 169t-214 52h-65v-221z" />
<glyph unicode="&#x20ab;" horiz-adv-x="1017" d="M139 612q0 163 99.5 265t234.5 102q70 0 118 -22.5t105 -71.5l-8 170v69h-299v101h299v137h143v-137h160v-90l-160 -11v-878h-118l-13 88h-6q-105 -109 -233 -109q-150 0 -236 101t-86 286zM162 0v100h735v-100h-735zM289 614q0 -126 52.5 -197t147.5 -71q104 0 199 109 v317q-53 46 -94 65t-96 19q-87 0 -148 -70t-61 -172z" />
<glyph unicode="&#x20ac;" horiz-adv-x="1017" d="M47 481v88l121 9q-2 25 -2 73q0 46 2 66h-121v90l131 10q35 241 169 377.5t335 136.5q88 0 168 -44t137 -116l-100 -96q-96 121 -211 121q-133 0 -217 -99.5t-109 -279.5h520v-100h-528q-2 -18 -2 -60q0 -52 2 -77h446v-99h-436q27 -175 107 -272.5t205 -97.5 q72 0 129 35.5t112 109.5l101 -90q-144 -191 -353 -191q-186 0 -313 134t-162 372h-131z" />
<glyph unicode="&#x20b1;" horiz-adv-x="1017" d="M20 772v74l150 10v121h-150v76l150 8v246h248q349 0 428 -246h145v-84h-129q4 -40 4 -68q0 -37 -2 -53h127v-84h-143q-39 -134 -153.5 -203t-276.5 -69h-86v-500h-162v772h-150zM332 616h65q219 0 285 156h-350v-156zM332 856h370q5 40 5 53q0 18 -5 68h-370v-121z M332 1061h346q-63 129 -281 129h-65v-129z" />
<glyph unicode="&#x20b2;" horiz-adv-x="1017" d="M96 651q0 283 116.5 461.5t317.5 212.5v207h123v-203q160 -14 283 -162l-100 -94q-101 123 -222 123q-165 0 -255.5 -144t-90.5 -395q0 -253 88 -397.5t244 -144.5q56 0 107.5 21.5t80.5 53.5v347h-206v141h360v-553q-121 -127 -289 -145v-205h-123v205 q-197 25 -315.5 203t-118.5 468z" />
<glyph unicode="&#x20b5;" horiz-adv-x="1017" d="M125 651q0 285 120 464t326 210v201h107v-195q82 -6 155.5 -49.5t127.5 -110.5l-101 -96q-80 108 -182 119v-1079q111 19 203 141l98 -90q-129 -164 -301 -186v-205h-107v202q-203 21 -324.5 200t-121.5 474zM299 657q0 -229 71 -371.5t201 -168.5v1069 q-131 -32 -201.5 -171t-70.5 -358z" />
<glyph unicode="&#x20b9;" horiz-adv-x="1017" d="M147 516v137h146q150 0 234.5 60.5t93.5 181.5h-474v90l142 10h327q-21 91 -102 131.5t-221 40.5h-146v140h777v-101h-291q59 -31 98.5 -86t52.5 -125h140v-100h-136q-9 -149 -91.5 -240t-219.5 -123l385 -532h-192l-365 516h-158z" />
<glyph unicode="&#x20ba;" horiz-adv-x="1017" d="M47 436v109l189 98v148l-189 -99v107l189 100v408h172v-324l335 176v-108l-335 -177v-147l335 176v-106l-335 -179v-483q69 2 138 25t127.5 64t95 105.5t36.5 141.5q0 49 -10 88l143 37q14 -66 14 -117q0 -168 -94.5 -285t-253.5 -170t-368 -49v560z" />
<glyph unicode="&#x2113;" horiz-adv-x="837" d="M43 358q115 77 176 125v547q0 227 81.5 336t217.5 109q120 0 193 -84t73 -234q0 -367 -399 -704v-72q0 -135 50.5 -198.5t131.5 -63.5q57 0 101 23.5t88 66.5l67 -105q-65 -59 -131.5 -94t-146.5 -35q-134 0 -225.5 92t-100.5 259l-108 -74zM385 629q256 259 256 528 q0 97 -32.5 143t-86.5 46q-60 0 -98.5 -72.5t-38.5 -214.5v-430z" />
<glyph unicode="&#x2117;" horiz-adv-x="1521" d="M100 662q0 152 53.5 280.5t144 214t211 133t253.5 47.5t253 -47.5t211 -133t144 -214t53 -280.5q0 -153 -53.5 -283t-143.5 -217t-210.5 -136t-253.5 -49t-253.5 49t-211 136t-144 217t-53.5 283zM197 662q0 -131 45 -244t121.5 -190t180 -121t218.5 -44t218.5 44 t180 121t121.5 190t45 244q0 130 -45 242t-121.5 187.5t-180 118.5t-218.5 43t-218.5 -43t-180 -118.5t-121.5 -187.5t-45 -242zM518 281v743h283q135 0 219 -60.5t84 -179.5q0 -130 -85 -199t-218 -69h-150v-235h-133zM651 618h127q193 0 193 162q0 140 -193 140h-127v-302 z" />
<glyph unicode="&#x2120;" horiz-adv-x="1304" d="M55 823l68 76q81 -78 172 -78q47 0 73.5 21.5t26.5 58.5q0 19 -4 32t-19 24.5t-25 17t-40 20.5l-96 47q-123 63 -123 177q0 80 60 130t155 50q110 0 195 -78l-60 -80q-81 62 -141 62q-45 0 -70.5 -22.5t-25.5 -55.5q0 -29 21 -48t65 -40l94 -47q64 -28 96.5 -70 t32.5 -109q0 -75 -62 -130.5t-161 -55.5q-134 0 -232 98zM635 750v634h153l95 -229l55 -162h8l55 162l93 229h151v-634h-117v280l13 215h-8l-146 -397h-92l-147 397h-9l15 -215v-280h-119z" />
<glyph unicode="&#x2122;" horiz-adv-x="1304" d="M6 1274v110h531v-110h-205v-524h-123v524h-203zM635 750v634h153l95 -229l55 -162h8l55 162l93 229h151v-634h-117v280l13 215h-8l-146 -397h-92l-147 397h-9l15 -215v-280h-119z" />
<glyph unicode="&#x2126;" horiz-adv-x="1404" d="M88 0v139h272v8q-243 239 -243 574q0 300 160 477.5t425 177.5t425.5 -178t160.5 -477q0 -334 -244 -574v-8h273v-139h-488v115q283 214 283 600q0 232 -110.5 372t-299.5 140q-190 0 -299.5 -139.5t-109.5 -372.5q0 -387 282 -600v-115h-487z" />
<glyph unicode="&#x212e;" horiz-adv-x="1638" d="M94 664q0 187 97 345.5t264 250.5t364 92t364 -92t264 -250.5t97 -345.5v-17h-1175q-9 0 -9 -8v-377q0 -16 17 -41q85 -97 200.5 -151t245.5 -54q135 0 257 61.5t210 168.5h107q-103 -126 -255 -198.5t-323 -72.5q-197 0 -364 92t-264 251t-97 346zM360 696q0 -12 9 -12 h901q12 0 12 12v377q0 25 -20 45q-88 91 -201.5 142t-237.5 51q-129 0 -243 -53t-203 -148q-17 -26 -17 -45v-369z" />
<glyph unicode="&#x2153;" horiz-adv-x="1646" d="M129 1176v86q116 21 197 81h108v-798h-131v631h-174zM315 -25l742 1393h114l-741 -1393h-115zM969 131l86 68q79 -119 202 -119q68 0 114 38.5t46 104.5q0 69 -65 105.5t-183 36.5v84q101 0 159 40t58 103q0 57 -39.5 92t-105.5 35q-83 0 -162 -96l-78 69 q111 131 261 131q107 0 181.5 -58.5t74.5 -156.5q0 -128 -142 -196q73 -19 122.5 -70.5t49.5 -126.5q0 -108 -81.5 -174t-200.5 -66q-95 0 -173 43t-124 113z" />
<glyph unicode="&#x2154;" horiz-adv-x="1681" d="M82 1214q49 70 119 112t149 42q123 0 194.5 -66.5t71.5 -191.5q0 -32 -9 -66t-18.5 -59t-37.5 -64.5t-42 -59t-58.5 -67t-60 -64t-71.5 -73.5h338v-112h-548v76q86 77 136 124t102.5 101.5t79 92t43.5 77.5t17 76q0 76 -42 120.5t-111 44.5q-94 0 -172 -114zM418 -25 l741 1393h115l-742 -1393h-114zM1001 131l86 68q79 -119 203 -119q69 0 114.5 38t45.5 105q0 69 -64.5 105.5t-183.5 36.5v84q101 0 159 40t58 103q0 57 -38.5 92t-104.5 35q-82 0 -164 -96l-78 69q111 131 260 131q108 0 182 -58.5t74 -156.5q0 -131 -141 -196 q74 -19 123 -70.5t49 -126.5q0 -108 -81.5 -174t-201.5 -66q-95 0 -172 42.5t-125 113.5z" />
<glyph unicode="&#x215b;" horiz-adv-x="1646" d="M129 1176v86q116 21 197 81h108v-798h-131v631h-174zM336 -25l741 1393h115l-741 -1393h-115zM987 199q0 70 43.5 127.5t108.5 95.5v8q-119 76 -119 182q0 94 72 152.5t178 58.5q108 0 181 -58t73 -153q0 -108 -121 -192v-8q147 -77 147 -207q0 -97 -80.5 -163.5 t-199.5 -66.5q-125 0 -204 65.5t-79 158.5zM1110 211q0 -56 45 -97.5t115 -41.5q66 0 111.5 40t45.5 97q0 18 -5 33.5t-11.5 27.5t-20.5 23.5t-24.5 19t-32 17.5t-34 15.5t-39 16t-39.5 15.5q-111 -66 -111 -166zM1141 610q0 -57 45.5 -91.5t128.5 -61.5q86 66 86 151 q0 51 -38 83t-95 32q-53 0 -90 -32t-37 -81z" />
<glyph unicode="&#x215c;" horiz-adv-x="1681" d="M72 678l88 65q78 -118 202 -118q67 0 113.5 39t46.5 104q0 68 -65 104.5t-183 36.5v84q101 0 159.5 40.5t58.5 103.5q0 58 -40 92.5t-106 34.5q-85 0 -162 -97l-80 70q115 131 263 131q107 0 180.5 -58.5t73.5 -156.5q0 -132 -140 -195q74 -20 123 -71.5t49 -126.5 q0 -108 -82 -174t-202 -66q-93 0 -171 43.5t-126 114.5zM410 -25l741 1393h115l-742 -1393h-114zM1020 199q0 70 43 127.5t108 95.5v8q-57 37 -87.5 80t-30.5 102q0 94 72 152.5t178 58.5q109 0 181 -58t72 -153q0 -108 -120 -192v-8q147 -77 147 -207q0 -97 -80.5 -163.5 t-199.5 -66.5q-125 0 -204 65.5t-79 158.5zM1143 211q0 -56 45 -97.5t115 -41.5q66 0 111.5 40t45.5 97q0 18 -5 33.5t-11.5 27.5t-20.5 23.5t-25 19t-32 17.5t-34 15.5t-39.5 15.5t-39.5 16q-110 -66 -110 -166zM1176 610q0 -57 45 -92t129 -61q86 68 86 151q0 51 -38 83 t-95 32q-54 0 -90.5 -32t-36.5 -81z" />
<glyph unicode="&#x215d;" horiz-adv-x="1681" d="M72 678l88 65q81 -118 207 -118q70 0 116.5 50.5t46.5 125.5q0 82 -46.5 129t-121.5 47q-72 0 -151 -64l-64 45l37 385h437v-114h-328l-23 -195q67 31 129 31q112 0 187.5 -72t75.5 -196q0 -122 -82 -199.5t-205 -77.5q-192 0 -303 158zM410 -25l741 1393h115l-742 -1393 h-114zM1020 199q0 70 43 127.5t108 95.5v8q-57 37 -87.5 80t-30.5 102q0 94 72 152.5t178 58.5q109 0 181 -58t72 -153q0 -108 -120 -192v-8q147 -77 147 -207q0 -97 -80.5 -163.5t-199.5 -66.5q-125 0 -204 65.5t-79 158.5zM1143 211q0 -56 45 -97.5t115 -41.5 q66 0 111.5 40t45.5 97q0 18 -5 33.5t-11.5 27.5t-20.5 23.5t-25 19t-32 17.5t-34 15.5t-39.5 15.5t-39.5 16q-110 -66 -110 -166zM1176 610q0 -57 45 -92t129 -61q86 68 86 151q0 51 -38 83t-95 32q-54 0 -90.5 -32t-36.5 -81z" />
<glyph unicode="&#x215e;" horiz-adv-x="1640" d="M61 1233v110h560v-71q-138 -177 -190.5 -338t-65.5 -389h-138q12 208 68 365t178 323h-412zM307 -25l742 1393h114l-741 -1393h-115zM979 199q0 70 43 127.5t108 95.5v8q-57 37 -87.5 80t-30.5 102q0 94 72 152.5t178 58.5q109 0 181.5 -58t72.5 -153q0 -108 -121 -192 v-8q147 -77 147 -207q0 -97 -80.5 -163.5t-199.5 -66.5q-125 0 -204 65.5t-79 158.5zM1102 211q0 -56 45 -97.5t115 -41.5q66 0 111.5 40t45.5 97q0 18 -5 33.5t-11.5 27.5t-20.5 23.5t-25 19t-32 17.5t-34 15.5t-39.5 15.5t-39.5 16q-110 -66 -110 -166zM1135 610 q0 -57 45 -92t129 -61q86 68 86 151q0 51 -38 83t-95 32q-54 0 -90.5 -32t-36.5 -81z" />
<glyph unicode="&#x2190;" horiz-adv-x="1267" d="M53 512v8l559 543l86 -94l-411 -383h899v-140h-899l411 -383l-86 -94z" />
<glyph unicode="&#x2191;" horiz-adv-x="1267" d="M86 522l543 557h8l545 -557l-97 -86l-383 412v-899h-139v899l-383 -412z" />
<glyph unicode="&#x2192;" horiz-adv-x="1267" d="M80 446v140h897l-412 383l88 94l557 -543v-8l-557 -543l-88 94l412 383h-897z" />
<glyph unicode="&#x2193;" horiz-adv-x="1267" d="M86 508l94 86l383 -412v897h139v-897l383 412l97 -86l-545 -559h-8z" />
<glyph unicode="&#x2202;" horiz-adv-x="1081" d="M82 369q0 206 120 334t324 128q83 0 164 -39t141 -108q3 35 3 68q0 248 -75 366.5t-212 118.5q-131 0 -230 -104l-77 106q137 137 323 137q203 0 318.5 -159.5t115.5 -468.5q0 -228 -67.5 -404t-191 -272.5t-283.5 -96.5q-154 0 -263.5 108.5t-109.5 285.5zM242 379 q0 -118 67 -191t162 -73q132 0 224 112t124 314q-124 155 -278 155q-146 0 -222.5 -87.5t-76.5 -229.5z" />
<glyph unicode="&#x2206;" horiz-adv-x="1212" d="M61 0v102l447 1250h197l448 -1250v-102h-1092zM254 145h707l-218 621l-131 410h-8l-133 -410z" />
<glyph unicode="&#x220f;" horiz-adv-x="1378" d="M182 -246v1553h1016v-1553h-174v1403h-672v-1403h-170z" />
<glyph unicode="&#x2211;" horiz-adv-x="1032" d="M45 -137l487 667l-464 668v109h901v-146h-690v-8l434 -621l-455 -624v-8h768v-146h-981v109z" />
<glyph unicode="&#x2212;" horiz-adv-x="1017" d="M70 612v127h878v-127h-878z" />
<glyph unicode="&#x2215;" horiz-adv-x="176" d="M-342 -25l741 1393h115l-741 -1393h-115z" />
<glyph unicode="&#x2219;" horiz-adv-x="1028" d="M385 666q0 57 35 93t86 36q52 0 87.5 -36t35.5 -93q0 -56 -35.5 -91.5t-87.5 -35.5q-51 0 -86 35.5t-35 91.5z" />
<glyph unicode="&#x221a;" horiz-adv-x="1140" d="M84 709l272 120l238 -708q16 -49 35 -131h8l25 131l364 1558h123l-444 -1874h-130l-307 877l-145 -66z" />
<glyph unicode="&#x221e;" horiz-adv-x="1601" d="M82 664q0 160 94 255t240 95q59 0 112.5 -18.5t97.5 -53t74.5 -67.5t63.5 -76h8q185 248 397 248q152 0 251.5 -101t99.5 -258q0 -173 -99.5 -280t-253.5 -107q-123 0 -217.5 62t-195.5 188h-9q-31 -35 -49 -54.5t-57 -54t-71.5 -53t-80 -34t-96.5 -15.5q-127 0 -218 95 t-91 229zM213 670q0 -86 56.5 -143.5t138.5 -57.5q147 0 274 188q-143 195 -279 195q-85 0 -137.5 -48.5t-52.5 -133.5zM834 696q92 -122 168 -178.5t167 -56.5q99 0 158 64t59 157q0 105 -62.5 169t-170.5 64q-164 0 -319 -219z" />
<glyph unicode="&#x222b;" horiz-adv-x="679" d="M106 -309l21 127q21 -8 70 -8q43 0 70.5 20t42 64.5t19.5 100t5 142.5q0 149 -43 504.5t-43 507.5q0 85 6.5 150.5t25.5 127t50 101.5t82 64t120 24q65 0 97 -12l-21 -127q-36 8 -71 8q-42 0 -68.5 -21t-41 -67t-19.5 -102.5t-5 -141.5q0 -148 42 -502t42 -506 q0 -86 -7 -152.5t-25.5 -128t-49.5 -101.5t-81.5 -63.5t-118.5 -23.5q-65 0 -99 15z" />
<glyph unicode="&#x2248;" horiz-adv-x="1017" d="M74 422q53 93 120 138.5t136 45.5q45 0 88 -18t77 -43.5t66 -51t66 -43.5t65 -18q91 0 158 125l94 -70q-53 -92 -120 -137t-136 -45q-45 0 -88 18t-77 43.5t-66 51t-66 43.5t-65 18q-91 0 -158 -125zM74 860q53 94 120 140.5t136 46.5q45 0 88 -18t77 -43.5t66 -51.5 t66 -44t65 -18q91 0 158 125l94 -69q-54 -92 -120.5 -137.5t-135.5 -45.5q-45 0 -88 18t-77 43.5t-66 51.5t-66 44t-65 18q-91 0 -158 -125z" />
<glyph unicode="&#x2260;" horiz-adv-x="1017" d="M70 393v127h284l187 311h-471v127h544l156 261h123l-156 -261h211v-127h-284l-187 -311h471v-127h-545l-155 -260h-123l156 260h-211z" />
<glyph unicode="&#x2264;" horiz-adv-x="1017" d="M70 0v127h878v-127h-878zM70 627v151l878 314v-146l-430 -149l-276 -90v-9l276 -90l430 -149v-146z" />
<glyph unicode="&#x2265;" horiz-adv-x="1017" d="M70 0v127h878v-127h-878zM70 313v146l430 149l276 90v9l-276 90l-430 149v146l878 -314v-151z" />
<glyph unicode="&#x231c;" horiz-adv-x="620" d="M193 0v1411h366v-96h-240v-1315h-126z" />
<glyph unicode="&#x231d;" horiz-adv-x="620" d="M63 1315v96h365v-1411h-127v1315h-238z" />
<glyph unicode="&#x231e;" horiz-adv-x="620" d="M193 -106v1413h126v-1317h240v-96h-366z" />
<glyph unicode="&#x231f;" horiz-adv-x="620" d="M63 -10h238v1317h127v-1413h-365v96z" />
<glyph unicode="&#x25a0;" horiz-adv-x="626" d="M111 332v416h405v-416h-405z" />
<glyph unicode="&#x25b2;" horiz-adv-x="1169" d="M47 78v4l535 1012h8l532 -1012v-4h-1075z" />
<glyph unicode="&#x25b3;" horiz-adv-x="1169" d="M47 78v4l535 1012h8l532 -1012v-4h-1075zM260 197h653l-327 641z" />
<glyph unicode="&#x25b6;" horiz-adv-x="1169" d="M117 39v1075h4l1012 -532v-9l-1012 -534h-4z" />
<glyph unicode="&#x25b7;" horiz-adv-x="1169" d="M117 39v1075h4l1012 -532v-9l-1012 -534h-4zM238 250l634 328l-634 325v-653z" />
<glyph unicode="&#x25bc;" horiz-adv-x="1169" d="M47 1071v4h1075v-4l-532 -1010h-8z" />
<glyph unicode="&#x25bd;" horiz-adv-x="1169" d="M47 1071v4h1075v-4l-532 -1012h-8zM260 956l326 -643l327 643h-653z" />
<glyph unicode="&#x25c0;" horiz-adv-x="1169" d="M37 573v9l1012 532h4v-1075h-4z" />
<glyph unicode="&#x25c1;" horiz-adv-x="1169" d="M37 573v9l1012 532h4v-1075h-4zM297 578l633 -328v653z" />
<glyph unicode="&#x25c6;" horiz-adv-x="626" d="M25 539l288 286l287 -286l-287 -287z" />
<glyph unicode="&#x25c9;" horiz-adv-x="909" d="M84 539q0 169 107.5 272.5t263.5 103.5q157 0 263.5 -103.5t106.5 -272.5t-106.5 -273t-263.5 -104q-155 0 -263 104t-108 273zM193 539q0 -126 77 -201.5t185 -75.5q109 0 186.5 75.5t77.5 201.5q0 127 -77.5 202.5t-186.5 75.5q-108 0 -185 -75.5t-77 -202.5zM338 539 q0 54 34 88.5t83 34.5t83.5 -34.5t34.5 -88.5t-35 -89.5t-83 -35.5t-82.5 35.5t-34.5 89.5z" />
<glyph unicode="&#x25ca;" horiz-adv-x="1058" d="M115 676l338 696h153l338 -696l-338 -696h-153zM264 676l133 -283l129 -272h9l127 272l133 283l-133 280l-127 275h-9l-129 -275z" />
<glyph unicode="&#x25fc;" horiz-adv-x="993" d="M0 0v993h993v-993h-993z" />
<glyph unicode="&#x2610;" horiz-adv-x="1636" d="M152 -20v1290l124 104h1209v-1270l-109 -124h-1224zM240 68h1091v1155h-1091v-1155z" />
<glyph unicode="&#x2611;" horiz-adv-x="1636" d="M152 -20v1290l124 104h1041q101 132 223 254l109 -102q-84 -78 -164 -170v-1252l-109 -124h-1224zM240 68h1091v1091q-299 -419 -440 -926l-176 -20q-105 296 -287 567l115 78q160 -253 241 -506h9q133 453 415 871h-968v-1155z" />
<glyph unicode="&#x266a;" horiz-adv-x="1030" d="M59 106q0 97 92.5 168.5t231.5 71.5q87 0 123 -24v1099h102q14 -40 39 -64.5t105 -82.5q132 -94 182.5 -186.5t50.5 -215.5q0 -136 -65 -268l-72 27q26 86 26 188q0 100 -68 185t-188 122v-833q0 -108 -49.5 -187.5t-128 -117t-174.5 -37.5q-88 0 -147.5 41t-59.5 114z " />
<glyph unicode="&#x2713;" horiz-adv-x="1253" d="M0 563l115 78q171 -258 270 -543h8q109 365 313 716t445 587l111 -103q-253 -235 -458.5 -576t-318.5 -742l-176 -21q-122 334 -309 604z" />
<glyph unicode="&#x2752;" horiz-adv-x="770" d="M111 250v459l120 100h428v-440l-100 -119h-448zM188 324h324v338h-324v-338z" />
<glyph unicode="&#x27e6;" horiz-adv-x="774" d="M193 -311v1761h518v-96h-226v-1569h226v-96h-518zM297 -215h92v1569h-92v-1569z" />
<glyph unicode="&#x27e7;" horiz-adv-x="774" d="M63 -215h226v1569h-226v96h519v-1761h-519v96zM385 -215h90v1569h-90v-1569z" />
<glyph unicode="&#x2e22;" horiz-adv-x="620" d="M193 569v881h366v-96h-240v-785h-126z" />
<glyph unicode="&#x2e23;" horiz-adv-x="620" d="M63 1354v96h365v-881h-127v785h-238z" />
<glyph unicode="&#x2e24;" horiz-adv-x="620" d="M193 -311v880h126v-784h240v-96h-366z" />
<glyph unicode="&#x2e25;" horiz-adv-x="620" d="M63 -215h238v784h127v-880h-365v96z" />
<glyph unicode="&#xfb00;" horiz-adv-x="1175" d="M61 858v127l136 10v131q0 159 78.5 247.5t230.5 88.5q103 0 182 -37l-35 -127q-64 27 -133 27q-74 0 -114.5 -52.5t-40.5 -150.5v-127h413v158q0 157 72.5 243.5t218.5 86.5q83 0 166 -33l-35 -129q-61 25 -113 25q-141 0 -141 -193v-158h211v-137h-211v-858h-168v858 h-413v-858h-168v858h-136z" />
<glyph />
<glyph horiz-adv-x="413" />
<glyph horiz-adv-x="704" d="M94 0v145h172v1055h-172v143h512v-143h-170v-1055h170v-145h-512z" />
<glyph horiz-adv-x="704" d="M94 0v145h172v1055h-172v143h512v-143h-170v-1055h170v-145h-512zM248 1446l180 229h193l-232 -229h-141z" />
<glyph horiz-adv-x="704" d="M74 1675h137l137 -139h8l138 139h137l-197 -229h-164zM94 0v145h172v1055h-172v143h512v-143h-170v-1055h170v-145h-512z" />
<glyph horiz-adv-x="704" d="M74 1446l196 229h164l197 -229h-137l-138 139h-8l-137 -139h-137zM94 0v145h172v1055h-172v143h512v-143h-170v-1055h170v-145h-512z" />
<glyph horiz-adv-x="704" d="M76 1565q0 44 28 72t72 28q43 0 71.5 -28t28.5 -72q0 -43 -28.5 -72t-71.5 -29q-44 0 -72 29t-28 72zM94 0v145h172v1055h-172v143h512v-143h-170v-1055h170v-145h-512zM428 1565q0 44 28.5 72t71.5 28q44 0 72.5 -28t28.5 -72q0 -43 -28.5 -72t-72.5 -29q-43 0 -71.5 29 t-28.5 72z" />
<glyph horiz-adv-x="704" d="M94 0v145h172v1055h-172v143h512v-143h-170v-1055h170v-145h-512zM236 1573q0 47 33 77.5t83 30.5t83.5 -30.5t33.5 -77.5q0 -49 -33.5 -80t-83.5 -31t-83 31t-33 80z" />
<glyph horiz-adv-x="704" d="M94 0v145h172v1055h-172v143h512v-143h-170v-1055h170v-145h-512zM244 -311q0 47 31.5 77.5t78.5 30.5q48 0 79.5 -30.5t31.5 -77.5q0 -49 -31.5 -80t-79.5 -31t-79 31t-31 80z" />
<glyph horiz-adv-x="704" d="M84 1675h192l181 -229h-142zM94 0v145h172v1055h-172v143h512v-143h-170v-1055h170v-145h-512z" />
<glyph horiz-adv-x="704" d="M94 0v145h172v1055h-172v143h512v-143h-170v-1055h170v-145h-512zM221 1688l19 98q135 -5 208.5 -47t73.5 -119q0 -152 -227 -190l-19 77q115 31 115 95q0 80 -170 86z" />
<glyph horiz-adv-x="704" d="M94 0v145h172v1055h-172v143h512v-143h-170v-1055h170v-145h-512zM98 1493v117h508v-117h-508z" />
<glyph horiz-adv-x="704" d="M94 0v145h172v1055h-172v143h512v-143h-170v-1055h170v-145h-178q-129 -102 -129 -219q0 -45 29 -69.5t69 -24.5q43 0 82 28l47 -92q-30 -24 -77 -40.5t-87 -16.5q-84 0 -139 47t-55 131q0 76 40.5 143t98.5 113h-213z" />
<glyph horiz-adv-x="704" d="M55 1456q9 98 55.5 159.5t118.5 61.5q46 0 91 -26.5t83.5 -53t69.5 -26.5q30 0 52.5 28t29.5 78h94q-9 -97 -56 -159t-118 -62q-37 0 -73.5 16.5t-61 37t-54.5 37t-55 16.5q-30 0 -52 -28t-29 -79h-95zM94 0v145h172v1055h-172v143h512v-143h-170v-1055h170v-145h-512z " />
<glyph horiz-adv-x="743" d="M-2 545l301 885h147l302 -885h-138l-80 262h-319l-82 -262h-131zM242 907h258l-39 127q-18 58 -50 166t-38 127h-4q-58 -201 -88 -293z" />
<glyph horiz-adv-x="802" d="M117 545v885h274q145 0 228 -52t83 -164q0 -67 -40 -119t-115 -73v-4q205 -36 205 -213q0 -127 -92.5 -193.5t-247.5 -66.5h-295zM246 645h149q232 0 232 166q0 154 -232 154h-149v-320zM246 1057h127q205 0 205 143q0 131 -201 131h-131v-274z" />
<glyph horiz-adv-x="776" d="M66 985q0 209 114.5 335t288.5 126q79 0 143 -30.5t107 -80.5l-72 -78q-81 78 -174 78q-124 0 -199 -94t-75 -252q0 -161 72.5 -255.5t195.5 -94.5q116 0 199 96l71 -78q-110 -129 -276 -129q-173 0 -284 122.5t-111 334.5z" />
<glyph horiz-adv-x="841" d="M117 545v885h229q207 0 317.5 -112.5t110.5 -324.5q0 -215 -109.5 -331.5t-312.5 -116.5h-235zM246 649h98q147 0 222 87.5t75 254.5q0 336 -301 336h-94v-678z" />
<glyph horiz-adv-x="718" d="M117 545v885h524v-107h-395v-260h336v-107h-336v-303h407v-108h-536z" />
<glyph horiz-adv-x="675" d="M117 545v885h526v-107h-397v-283h338v-108h-338v-387h-129z" />
<glyph horiz-adv-x="841" d="M66 987q0 210 117 334.5t302 124.5q149 0 260 -107l-73 -82q-76 80 -187 80q-131 0 -208.5 -94t-77.5 -252q0 -165 75 -258.5t213 -93.5q102 0 154 49v217h-182v107h299v-379q-49 -46 -123 -75.5t-160 -29.5q-181 0 -295 123t-114 336z" />
<glyph horiz-adv-x="888" d="M117 545v885h129v-365h399v365h129v-885h-129v411h-399v-411h-129z" />
<glyph horiz-adv-x="360" d="M117 545v885h129v-885h-129z" />
<glyph horiz-adv-x="657" d="M37 674l90 63q56 -98 149 -98q71 0 105.5 43t34.5 141v607h129v-617q0 -127 -64 -206t-194 -79q-168 0 -250 146z" />
<glyph horiz-adv-x="792" d="M117 545v885h129v-429h4l356 429h144l-279 -336l322 -549h-142l-258 450l-147 -172v-278h-129z" />
<glyph horiz-adv-x="665" d="M117 545v885h129v-777h385v-108h-514z" />
<glyph horiz-adv-x="995" d="M117 545v885h149l170 -459l64 -176h6l61 176l164 459h150v-885h-121v461q0 58 16 266h-6l-72 -199l-166 -442h-67l-168 442l-74 199h-4q17 -221 17 -266v-461h-119z" />
<glyph horiz-adv-x="882" d="M117 545v885h135l309 -537l94 -184h7q-15 220 -15 288v433h119v-885h-133l-309 540l-97 183h-4q13 -195 13 -281v-442h-119z" />
<glyph horiz-adv-x="907" d="M66 991q0 211 107 333t280 122q174 0 281.5 -122.5t107.5 -332.5q0 -212 -107.5 -337.5t-281.5 -125.5q-172 0 -279.5 126t-107.5 337zM199 991q0 -160 69.5 -256t184.5 -96q117 0 186.5 96t69.5 256q0 159 -69.5 252.5t-186.5 93.5q-116 0 -185 -93.5t-69 -252.5z" />
<glyph horiz-adv-x="788" d="M117 545v885h284q334 0 334 -263q0 -138 -90.5 -208t-243.5 -70h-155v-344h-129zM246 991h141q113 0 167 43t54 133q0 88 -53.5 124t-167.5 36h-141v-336z" />
<glyph horiz-adv-x="907" d="M63 993q0 209 107.5 331t280.5 122q174 0 281.5 -122.5t107.5 -330.5q0 -188 -85.5 -309t-228.5 -149q62 -107 217 -107q45 0 95 12l24 -96q-54 -20 -133 -20q-122 0 -209.5 56t-128.5 152q-149 22 -238.5 145t-89.5 316zM197 993q0 -163 69 -259.5t185 -96.5 q117 0 186.5 96.5t69.5 259.5q0 158 -69.5 251t-186.5 93q-116 0 -185 -93t-69 -251z" />
<glyph horiz-adv-x="796" d="M117 545v885h289q147 0 232 -59.5t85 -190.5q0 -99 -52 -162.5t-143 -89.5l226 -383h-146l-207 366h-155v-366h-129zM246 1014h143q207 0 207 162q0 81 -51 116t-156 35h-143v-313z" />
<glyph horiz-adv-x="729" d="M53 662l76 86q49 -51 114.5 -79t133.5 -28q83 0 128.5 37t45.5 98q0 57 -34.5 86.5t-110.5 61.5l-130 57q-82 36 -132 88t-50 139q0 103 82.5 171.5t208.5 68.5q76 0 146.5 -30t121.5 -81l-67 -80q-95 82 -205 82q-72 0 -114 -33t-42 -89q0 -28 11.5 -51t36.5 -40 t43.5 -26.5t52.5 -24.5l129 -55q93 -40 137.5 -90t44.5 -137q0 -115 -83.5 -190t-225.5 -75q-187 0 -318 134z" />
<glyph horiz-adv-x="729" d="M35 1323v107h661v-107h-266v-778h-127v778h-268z" />
<glyph horiz-adv-x="882" d="M115 920v510h127v-517q0 -274 202 -274q203 0 203 274v517h123v-510q0 -205 -87.5 -298.5t-238.5 -93.5q-329 0 -329 392z" />
<glyph horiz-adv-x="708" d="M-4 1430h135l141 -465q13 -42 39.5 -138.5t44.5 -152.5h6q18 55 43 150.5t39 140.5l138 465h131l-283 -885h-147z" />
<glyph horiz-adv-x="1077" d="M27 1430h133l88 -467q27 -144 51 -285h6q33 172 60 285l120 467h115l121 -467q12 -47 32 -142.5t31 -142.5h4q37 215 50 285l90 467h123l-185 -885h-153l-129 512q-15 62 -43 200h-4l-43 -200l-125 -512h-156z" />
<glyph horiz-adv-x="708" d="M16 545l260 459l-241 426h141l115 -216l67 -131h7q26 56 63 131l111 216h137l-244 -433l260 -452h-141l-123 231l-76 142h-6q-30 -63 -72 -142l-122 -231h-136z" />
<glyph horiz-adv-x="655" d="M-6 1430h135l113 -240q42 -99 86 -195h6q66 146 86 195l108 240h134l-269 -545v-340h-129v340z" />
<glyph horiz-adv-x="733" d="M55 545v78l463 700h-422v107h580v-76l-461 -701h465v-108h-625z" />
<glyph horiz-adv-x="503" d="M137 1309q0 49 33.5 78.5t83.5 29.5t83.5 -29.5t33.5 -78.5q0 -47 -33.5 -78t-83.5 -31t-83.5 31t-33.5 78zM168 0v995h168v-995h-168z" />
<glyph horiz-adv-x="503" d="M78 -248q0 51 23 102t47 80t61 66h-41v995h168v-995q-133 -96 -133 -215q0 -45 27.5 -69.5t68.5 -24.5q38 0 82 26l43 -84q-29 -23 -75.5 -39t-84.5 -16q-82 0 -134 45.5t-52 128.5z" />
<glyph horiz-adv-x="1136" d="M96 496q0 118 36 218t96 166t138.5 103t163.5 37q81 0 147 -29.5t136 -91.5h4l14 96h138v-995h-140l-14 117h-6q-146 -142 -301 -142q-190 0 -301 137.5t-111 383.5zM270 498q0 -179 72.5 -280t202.5 -101q132 0 254 137v520q-116 105 -242 105q-122 0 -204.5 -106.5 t-82.5 -274.5z" />
<glyph horiz-adv-x="1136" d="M96 496q0 118 36 218t96 166t138.5 103t163.5 37q81 0 147 -29.5t136 -91.5h4l14 96h138v-995h-140l-14 117h-6q-146 -142 -301 -142q-190 0 -301 137.5t-111 383.5zM270 498q0 -179 72.5 -280t202.5 -101q132 0 254 137v520q-116 105 -242 105q-122 0 -204.5 -106.5 t-82.5 -274.5zM444 1174l187 288h176l-232 -288h-131z" />
<glyph horiz-adv-x="1136" d="M96 496q0 118 36 218t96 166t138.5 103t163.5 37q81 0 147 -29.5t136 -91.5h4l14 96h138v-995h-140l-14 117h-6q-146 -142 -301 -142q-190 0 -301 137.5t-111 383.5zM270 498q0 -179 72.5 -280t202.5 -101q132 0 254 137v520q-116 105 -242 105q-122 0 -204.5 -106.5 t-82.5 -274.5zM319 1438h105q10 -66 49.5 -111t106.5 -45q66 0 105.5 45t47.5 111h105q-4 -48 -20.5 -92t-46 -83t-79 -62t-112.5 -23t-113 23t-80 62t-47 83t-21 92z" />
<glyph horiz-adv-x="1136" d="M96 496q0 118 36 218t96 166t138.5 103t163.5 37q81 0 147 -29.5t136 -91.5h4l14 96h138v-995h-140l-14 117h-6q-146 -142 -301 -142q-190 0 -301 137.5t-111 383.5zM270 498q0 -179 72.5 -280t202.5 -101q132 0 254 137v520q-116 105 -242 105q-122 0 -204.5 -106.5 t-82.5 -274.5zM319 1438h91q10 -70 53 -117t117 -47q73 0 115.5 47t52.5 117h90q-4 -48 -20.5 -92t-46 -83t-79 -62t-112.5 -23t-113 23t-80 62t-47 83t-21 92zM502 1386l139 230h139l-178 -230h-100z" />
<glyph horiz-adv-x="1136" d="M96 496q0 118 36 218t96 166t138.5 103t163.5 37q81 0 147 -29.5t136 -91.5h4l14 96h138v-995h-140l-14 117h-6q-146 -142 -301 -142q-190 0 -301 137.5t-111 383.5zM270 498q0 -179 72.5 -280t202.5 -101q132 0 254 137v520q-116 105 -242 105q-122 0 -204.5 -106.5 t-82.5 -274.5zM319 1438h105q10 -66 49.5 -111t106.5 -45q66 0 105.5 45t47.5 111h105q-4 -48 -20.5 -92t-46 -83t-79 -62t-112.5 -23t-113 23t-80 62t-47 83t-21 92zM471 -311q0 47 31.5 77.5t79.5 30.5q47 0 78.5 -30.5t31.5 -77.5q0 -49 -31 -80t-79 -31t-79.5 31 t-31.5 80z" />
<glyph horiz-adv-x="1136" d="M96 496q0 118 36 218t96 166t138.5 103t163.5 37q81 0 147 -29.5t136 -91.5h4l14 96h138v-995h-140l-14 117h-6q-146 -142 -301 -142q-190 0 -301 137.5t-111 383.5zM270 498q0 -179 72.5 -280t202.5 -101q132 0 254 137v520q-116 105 -242 105q-122 0 -204.5 -106.5 t-82.5 -274.5zM319 1438h91q10 -70 53 -117t117 -47q73 0 115.5 47t52.5 117h90q-4 -48 -20.5 -92t-46 -83t-79 -62t-112.5 -23t-113 23t-80 62t-47 83t-21 92zM377 1616h139l139 -230h-100z" />
<glyph horiz-adv-x="1136" d="M96 496q0 118 36 218t96 166t138.5 103t163.5 37q81 0 147 -29.5t136 -91.5h4l14 96h138v-995h-140l-14 117h-6q-146 -142 -301 -142q-190 0 -301 137.5t-111 383.5zM270 498q0 -179 72.5 -280t202.5 -101q132 0 254 137v520q-116 105 -242 105q-122 0 -204.5 -106.5 t-82.5 -274.5zM319 1438h91q10 -70 53 -117t117 -47q73 0 115.5 47t52.5 117h90q-4 -48 -20.5 -92t-46 -83t-79 -62t-112.5 -23t-113 23t-80 62t-47 83t-21 92zM453 1634l14 84q248 -6 248 -149q0 -39 -15.5 -69t-45 -49t-59.5 -30.5t-71 -21.5l-18 71q88 24 88 80 q0 40 -33.5 60.5t-107.5 23.5z" />
<glyph horiz-adv-x="1136" d="M96 496q0 118 36 218t96 166t138.5 103t163.5 37q81 0 147 -29.5t136 -91.5h4l14 96h138v-995h-140l-14 117h-6q-146 -142 -301 -142q-190 0 -301 137.5t-111 383.5zM270 498q0 -179 72.5 -280t202.5 -101q132 0 254 137v520q-116 105 -242 105q-122 0 -204.5 -106.5 t-82.5 -274.5zM311 1456q8 84 50 135t110 51q35 0 67 -14t52 -30t44 -30t46 -14q32 0 53 22.5t27 65.5h86q-8 -84 -49.5 -135t-110.5 -51q-44 0 -82 22t-69 44t-58 22q-65 0 -80 -88h-86zM324 1397h92q10 -55 51 -91t113 -36t112.5 36t50.5 91h93q-8 -93 -71 -156t-185 -63 q-123 0 -186 63.5t-70 155.5z" />
<glyph horiz-adv-x="1136" d="M96 496q0 118 36 218t96 166t138.5 103t163.5 37q81 0 147 -29.5t136 -91.5h4l14 96h138v-995h-140l-14 117h-6q-146 -142 -301 -142q-190 0 -301 137.5t-111 383.5zM270 498q0 -179 72.5 -280t202.5 -101q132 0 254 137v520q-116 105 -242 105q-122 0 -204.5 -106.5 t-82.5 -274.5zM315 1462h123l137 -188h9l137 188h121l-195 -288h-137z" />
<glyph horiz-adv-x="1136" d="M96 496q0 118 36 218t96 166t138.5 103t163.5 37q81 0 147 -29.5t136 -91.5h4l14 96h138v-995h-140l-14 117h-6q-146 -142 -301 -142q-190 0 -301 137.5t-111 383.5zM270 498q0 -179 72.5 -280t202.5 -101q132 0 254 137v520q-116 105 -242 105q-122 0 -204.5 -106.5 t-82.5 -274.5zM315 1174l195 288h137l195 -288h-121l-137 186h-9l-137 -186h-123z" />
<glyph horiz-adv-x="1136" d="M96 496q0 118 36 218t96 166t138.5 103t163.5 37q81 0 147 -29.5t136 -91.5h4l14 96h138v-995h-140l-14 117h-6q-146 -142 -301 -142q-190 0 -301 137.5t-111 383.5zM270 498q0 -179 72.5 -280t202.5 -101q132 0 254 137v520q-116 105 -242 105q-122 0 -204.5 -106.5 t-82.5 -274.5zM340 1174l170 243h137l170 -243h-115l-118 149h-9l-120 -149h-115zM760 1311l151 233h144l-191 -233h-104z" />
<glyph horiz-adv-x="1136" d="M96 496q0 118 36 218t96 166t138.5 103t163.5 37q81 0 147 -29.5t136 -91.5h4l14 96h138v-995h-140l-14 117h-6q-146 -142 -301 -142q-190 0 -301 137.5t-111 383.5zM270 498q0 -179 72.5 -280t202.5 -101q132 0 254 137v520q-116 105 -242 105q-122 0 -204.5 -106.5 t-82.5 -274.5zM315 1174l195 288h137l195 -288h-121l-137 186h-9l-137 -186h-123zM471 -311q0 47 31.5 77.5t79.5 30.5q47 0 78.5 -30.5t31.5 -77.5q0 -49 -31 -80t-79 -31t-79.5 31t-31.5 80z" />
<glyph horiz-adv-x="1136" d="M96 496q0 118 36 218t96 166t138.5 103t163.5 37q81 0 147 -29.5t136 -91.5h4l14 96h138v-995h-140l-14 117h-6q-146 -142 -301 -142q-190 0 -301 137.5t-111 383.5zM270 498q0 -179 72.5 -280t202.5 -101q132 0 254 137v520q-116 105 -242 105q-122 0 -204.5 -106.5 t-82.5 -274.5zM340 1174l170 243h137l170 -243h-115l-118 149h-9l-120 -149h-115zM696 1544h144l151 -233h-104z" />
<glyph horiz-adv-x="1136" d="M96 496q0 118 36 218t96 166t138.5 103t163.5 37q81 0 147 -29.5t136 -91.5h4l14 96h138v-995h-140l-14 117h-6q-146 -142 -301 -142q-190 0 -301 137.5t-111 383.5zM270 498q0 -179 72.5 -280t202.5 -101q132 0 254 137v520q-116 105 -242 105q-122 0 -204.5 -106.5 t-82.5 -274.5zM340 1174l170 243h137l170 -243h-115l-118 149h-9l-120 -149h-115zM743 1522l15 84q248 -9 248 -150q0 -40 -15 -69.5t-44.5 -49t-59.5 -30.5t-72 -21l-16 72q86 25 86 80q0 40 -33.5 60t-108.5 24z" />
<glyph horiz-adv-x="1136" d="M96 496q0 118 36 218t96 166t138.5 103t163.5 37q81 0 147 -29.5t136 -91.5h4l14 96h138v-995h-140l-14 117h-6q-146 -142 -301 -142q-190 0 -301 137.5t-111 383.5zM270 498q0 -179 72.5 -280t202.5 -101q132 0 254 137v520q-116 105 -242 105q-122 0 -204.5 -106.5 t-82.5 -274.5zM311 1456q8 84 50 135t110 51q35 0 67 -14t52 -30t44 -30t46 -14q32 0 53 22.5t27 65.5h86q-8 -84 -49.5 -135t-110.5 -51q-44 0 -82 22t-69 44t-58 22q-65 0 -80 -88h-86zM324 1169l178 213h153l179 -213h-119l-131 134h-9l-133 -134h-118z" />
<glyph horiz-adv-x="1136" d="M96 496q0 118 36 218t96 166t138.5 103t163.5 37q81 0 147 -29.5t136 -91.5h4l14 96h138v-995h-140l-14 117h-6q-146 -142 -301 -142q-190 0 -301 137.5t-111 383.5zM270 498q0 -179 72.5 -280t202.5 -101q132 0 254 137v520q-116 105 -242 105q-122 0 -204.5 -106.5 t-82.5 -274.5zM301 1305q0 43 28.5 71.5t71.5 28.5q44 0 72.5 -28.5t28.5 -71.5t-28.5 -72t-72.5 -29q-43 0 -71.5 29t-28.5 72zM655 1305q0 43 29 71.5t72 28.5t71.5 -28.5t28.5 -71.5t-28.5 -72t-71.5 -29t-72 29t-29 72z" />
<glyph horiz-adv-x="1136" d="M96 496q0 118 36 218t96 166t138.5 103t163.5 37q81 0 147 -29.5t136 -91.5h4l14 96h138v-995h-140l-14 117h-6q-146 -142 -301 -142q-190 0 -301 137.5t-111 383.5zM270 498q0 -179 72.5 -280t202.5 -101q132 0 254 137v520q-116 105 -242 105q-122 0 -204.5 -106.5 t-82.5 -274.5zM471 -311q0 47 31.5 77.5t79.5 30.5q47 0 78.5 -30.5t31.5 -77.5q0 -49 -31 -80t-79 -31t-79.5 31t-31.5 80z" />
<glyph horiz-adv-x="1136" d="M96 496q0 118 36 218t96 166t138.5 103t163.5 37q81 0 147 -29.5t136 -91.5h4l14 96h138v-995h-140l-14 117h-6q-146 -142 -301 -142q-190 0 -301 137.5t-111 383.5zM270 498q0 -179 72.5 -280t202.5 -101q132 0 254 137v520q-116 105 -242 105q-122 0 -204.5 -106.5 t-82.5 -274.5zM352 1462h174l187 -288h-129z" />
</font>
</defs>
</svg>
